// ===== Made using 0AuBSQ's Dan Chart Maker =====
TITLE:初段
BPM:128
WAVE:Startup Parade!.ogg
DEMOSTART:0
SCOREMODE:2

COURSE:Dan
LEVEL:6
BPM:128
BALLOON:21
EXAM1:g,97,100,m
EXAM2:a,81,83,m
EXAM3:jb,26,13,l
DANTICK:5
DANTICKCOLOR:#00ff77
#START
#NEXTSONG Startup Parade!,Ryuto Setsujin,,Startup Parade!.ogg,350,80,5,3
#BPMCHANGE 128
#MEASURE 4/4
#SCROLL 1.0
#BARLINEON
EXAM4:r,50,74,m
#BARLINEOFF
,
0000000000222010,
#BARLINEON
1020002000200022,
1020002000200022,
1020002000200022,
1020002000200022,
1020002210102020,
1220,
1020002210202020,
2212,
1000201110102020,
1221,
#GOGOSTART
1011202210112022,
5868,
#GOGOEND
1020002210102020,
1220,
1020002210202020,
2212,
1000201110102020,
1221,
#GOGOSTART
1011202210112022,
5868,
1210200022102020,
50804222,
#GOGOEND
10021122,
1000200020222020,
1020002210202020,
2212,
1000201110102020,
1221,
#GOGOSTART
1011202210112022,
5868,
#GOGOEND
1020002210102020,
1220,
1020002210202020,
2212,
1000201110102020,
1221,
#GOGOSTART
1011202210112022,
5868,
#GOGOEND
1020002210221020,
1020002210221020,
1020002210221020,
1020002210221020,
1020002110221020,
1020002110221020,
#GOGOSTART
1120112012201220,
5000802250000080,
#GOGOEND
1012002010201020,
1010221120002000,
3,
,
,
#NEXTSONG nanja korya ?!,Makotora,,NanjaKorya.ogg,350,80,6,3
#BPMCHANGE 170
#MEASURE 4/4
#SCROLL 1.0
#BARLINEON
EXAM4:r,211,268,m
#MEASURE 3/4
005008,
#MEASURE 4/4
20112011,
2000101020001120,
20112011,
2000101020001120,
50000811,
22112112,
50000811,
2020101020101022,
21212020,
1000200010001120,
21212020,
1000200010002220,
20121021,
20121021,
21112221,
2010201020101110,
21212020,
1000200010001120,
21212020,
1000200010002220,
20121021,
20121021,
21112221,
2010201020101110,
#SCROLL 0.750000
50008012,
2111,
50008012,
2112,
50008012,
2211,
50008012,
2000100020001011,
50008012,
2111,
50008012,
2112,
50008012,
2211,
50008012,
2000100020001011,
#SCROLL 1.000000
20112011,
2000101020001120,
20112011,
2000101020001120,
50000811,
22112112,
50000811,
2020101020101022,
2222,
4000200020002220,
4222,
4000200020002220,
12221222,
12221222,
50000008,
#SCROLL 10.000000
78,
0,
0,
#SCROLL 1.250000
#GOGOSTART
32323232,
32323233,
32323232,
3020302030203011,
12323232,
3020302030201111,
12323232,
#SCROLL 1.000000
#GOGOEND
4,
#SCROLL 0.750000
50008012,
2111,
50008012,
2112,
50008012,
2211,
50008012,
20102011,
#SCROLL 1.000000
1011101010001010,
1011101010001010,
1011101010001010,
1011101010001010,
1011101010001010,
1011101010001010,
1011101010001010,
1011101010102211,
20112011,
2000101020001120,
20112011,
2000101020001120,
50000811,
22112112,
50000811,
2020101020101022,
2,
,
#NEXTSONG I'll Still Be Me,DashyDesu,,ill.ogg,350,80,6,3
#BPMCHANGE 76
#MEASURE 4/4
#SCROLL 1.0
#BARLINEON
#DELAY 0.025
EXAM4:r,5,8,m
#SCROLL 0.88
1001100101004000,
1001100101104000,
1001100101102210,
1010201110102011,
1001201010102010,
1010201000102011,
1011020110104020,
300000000000200000100100100000000000200020002000,
1000201010102011,
1010201000102011,
1011201010102220,
3000201100104010,
1011202200112010,
10112000100
12011,
1011201101102220,
3000201100104010,
1011
202200112010,
1012020010012011,
1011201030203020,
#GOGOSTART
1011201110102101,
1011201101102100,
3011201030112010,
3011201030203020,
1011201010201100,
1011202210
#GOGOEND
300000,
1001100101004000,
1001100101104000,
1001100101102210,
1011201110102000,
1011201110102020,
1011201120112010,
1011221020112000,
1001201110212000,
1010201120112220,
1011201110102022,
1001201111115080,
3000201100104010,
1011202200112010,
1011200010012011,
1011201101102220,
3000201100104010,
1011202200112010,
1012022010012011,
1011201030203020,
#GOGOSTART
1011201110102101,
1011201101102100,
3011201030112010,
3011201030203020,
1011201010201100,
1011202210300
#GOGOEND
300,
#GOGOSTART
3011201102102011,
1011201202100100,
3022101100221011,
002210221
0201200,
1122102011201200,
101120
2202102110,
3,
,
#END
