// ===== Made using 0AuBSQ's Dan Chart Maker =====
TITLE:二段
BPM:135
WAVE:CITYSCAPE.ogg
DEMOSTART:71.334
SCOREMODE:2

COURSE:Dan
LEVEL:7
BPM:135
BALLOON:12,12,1,1
EXAM1:g,98,100,m
EXAM2:a,83,85,m
EXAM3:jb,28,15,l
DANTICK:5
DANTICKCOLOR:#00ff93
#START
#NEXTSONG cityscape,Makotora,,CITYSCAPE.ogg,350,80,6,3
#BPMCHANGE 135
#MEASURE 4/4
#SCROLL 1.0
#BARLINEON
#DELAY 0.224
EXAM4:r,20,24,m 30211021,
1000201010002011,
10211021,
1000201010002011,
10211021,
1000201010002011,
10211021,
7008,
#GOGOSTART
3000201010002011,
1000201010002011,
1000201010002011,
12120212,
3000201010002011,
1000201010002011,
1000201010002011,
12120212,
#GOGOEND
#BARLINEOFF
#SCROLL 0.75
32020122,
10221020,
12020122,
10201120,
12020202,
11221020,
10000202,
11221210,
#BARLINEON
#SCROLL 1
3000201010002011,
10221020,
1000201010002011,
10221122,
1000201010002011,
11221020,
1000201010200022,
11201220,
3001201040012010,
3001201040022020,
3001201040012010,
3001201040002022,
22222222,
2220222022202220,
7008,
3044,
#GOGOSTART
32021221,
1001202011202010,
12021221,
1001201210012012,
12021221,
1110222010112000,
12021202,
1120101022202000,
1120112012201000,
1120100012201000,
1120222012201000,
1022100022102000,
2012201220122000,
1011101020212000,
1120112011201210,
1011101020212000,
#GOGOEND
3001201010012011,
1001201010012011,
1001201010012011,
12120212,
3020001000200011,
1020001000200011,
1020001000200011,
1011101020202000,
3,
,
#NEXTSONG 2​-​Steppin' Love,FUNKYZUKIN ft. Hatsune Miku ,,2 Steppin Love.ogg,350,80,7,3
#BPMCHANGE 137
#MEASURE 4/4
#SCROLL 1.0
#BARLINEON
#DELAY 0.168
EXAM4:r,18,24,m 50000008,
1010201001102010,
1010201101102010,
1010201001102010,
1010201101102010,
1010201001102010,
1010201101102010,
1010201001102010,
1011201101102010,
1010201001102010,
1010201101102010,
1010201001102010,
1010201101102010,
1010201001102010,
1010201101102010,
1010201001102010,
101010101010101010202202,
1010201001102010,
1010201101102010,
1010201001102010,
1010201101102010,
1010201001102010,
1010201101102010,
1010201001102010,
100100200010101010200000,
1010201021102010,
1010201121102010,
1011201021102012,
1010201121102010,
1010201021102010,
1010201101102010,
1010201021102010,
1010201101102010,
1010201021102012,
1010201121102012,
1010201021102010,
1012201101102010,
1010201021102010,
1010201121102010,
1010201021102010,
100000100000200000100100000100100020200000200000,
#GOGOSTART
1010201001102010,
1010201101102010,
1010201021102010,
1010201101102010,
1010201021102010,
1010201101102010,
1010201021102010,
100000100000200000100100000100100000200010200020,
#GOGOEND
1010201001102010,
1010201101102010,
1010201001102010,
1010201101102010,
1010201001102010,
1010201101102010,
1010201001102010,
100000100000200000100100200100200010200010200020,
1,
,
#NEXTSONG Deceiver,H5,,Deceiver.ogg,350,80,7,3
#BPMCHANGE 150.00
#MEASURE 4/4
#SCROLL 1.0
#BARLINEON
EXAM4:r,25,34,m
#MEASURE 1/4
0022,
#MEASURE 4/4
1010102000000011,
2002001002001010,
2002001000000012,
2002001001002020,
1010102000000011,
2001002002002020,
20020000,
20010010,
11121110,
11121110,
11121110,
1010102010112000,
11121110,
11121110,
11121110,
11117878,
2020202220202000,
2202022022020220,
2202022022020220,
2202022022202000,
2020202220202000,
2202022022020220,
2202022022020220,
2202022022202000,
1020120200101201,
0020120200101202,
1020120200101201,
0120120101201102,
1020120200101201,
0020120200101202,
1020120200101201,
11115008,
#GOGOSTART
1010120010120020,
2012001012002101,
1010120010120020,
2012001012002020,
1010120010120020,
2012002022002202,
1010120010120020,
2012001012002020,
1010120010120020,
2012001012002101,
1010120010120020,
2012001012002020,
1010120010120020,
2012002022002202,
1010120010120020,
11115008,
#GOGOEND
1020120200101201,
0020120200101202,
1020120200101201,
0120120101201102,
1020120200101201,
0020120200101202,
1020120200101201,
11115008,
1010202000000011,
2021202210121021,
2020101000000012,
2002001001001020,
1010202000000011,
2021202210121021,
2020101000000012,
2004004004005080,
#GOGOSTART
1010120110120120,
1020120120120120,
1010120110120120,
1020120120102020,
1010120110120120,
1020120120120120,
1020210120120120,
2011012012012020,
1010120110120120,
1020120120120120,
1010120110120120,
1020120120102020,
1010120110120120,
1020120120120120,
1020110040000000,
40404044,
#GOGOEND
40010020,
01001010,
3,
1,
,
#END
