// ===== Made using 0AuBSQ's Dan Chart Maker =====
TITLE:三段
BPM:128
WAVE:Fearless.ogg
DEMOSTART:46.875
SCOREMODE:2

COURSE:Dan
LEVEL:8
BPM:128
BALLOON:
EXAM1:g,99,100,m
EXAM2:a,85,87,m
EXAM3:jb,33,16,l
DANTICK:5
DANTICKCOLOR:#00ffcb
#START
#NEXTSONG Fearless,Ash Electric,,Fearless.ogg,350,80,7,3
#BPMCHANGE 128
#MEASURE 4/4
#SCROLL 1.0
#BARLINEON
EXAM4:r,0,0,m
#MEASURE 4/4
0,
2120101020020010,
2001021020010210,
2120101020020010,
2001021020010210,
2120101020020010,
2001021020010210,
2120101020020010,
2001021020010210,
1120101020001010,
1210101012102020,
1120101020001010,
1210101022202010,
1120101020001010,
1210101012102020,
1120101020001010,
1210101022202011,
1000100010001011,
2000100010001011,
2000200020002022,
2000200020002022,
1011101110111011,
2011101110111011,
2011201220222022,
2022202221202020,
#GOGOSTART
1110101020001020,
1210102012102010,
1110101020001020,
1210102012202010,
1110101020001020,
1210102012102010,
1110101020001020,
1210102012201020,
1012101011102020,
1210101012102020,
1012101011102020,
1210101012202020,
1012101011102020,
1210101012102020,
1012101011102020,
1210101012202020,
#GOGOEND
2120101120020011,
2001021020010210,
2120101120020011,
2001021020010210,
2120101120020011,
2001021020010210,
2120101120020011,
2001021020010210,
#GOGOSTART
2120101120222011,
2011221020112210,
2120101120222011,
2011221020112210,
2120101120222011,
2011221020112210,
2120101120222011,
2011221020112210,
#GOGOEND
20020020,
20020020,
20020020,
20020020,
20020020,
20020020,
20020020,
20020020,
,
#NEXTSONG beyond the cityscape,Makotora,,Beyond the Cityscape.ogg,350,80,7,3
#BPMCHANGE 142
#MEASURE 4/4
#SCROLL 1.0
#BARLINEON
#DELAY 0.215
EXAM4:r,0,0,m 3001200110012001,
1001200110012010,
1001200110012001,
1001200110012010,
4001201020012010,
2001201020012220,
12221222,
1110111010101111,
#MEASURE 8/4
1,
#MEASURE 4/4
11120200,
11120202,
21120101,
11212020,
11120200,
11120202,
21210201,
11212020,
3001201010012010,
1001201010012011,
1001201010012010,
1001201010012011,
1001201010012010,
1001201010012011,
1001201010012010,
1001201011102000,
4001201020012010,
2001201020012220,
2001201020012010,
2001201020012220,
32221222,
12221222,
1110111011101110,
1010101011111110,
#MEASURE 8/4
3,
#MEASURE 4/4
#GOGOSTART
3011201110202020,
1010201000201120,
1011200020201020,
1011202011201000,
1011201110202020,
1010201000201120,
1011200020201020,
1120112011101111,
1011201202101020,
0010202101101020,
0010201202201020,
1011202011201000,
1011201202101020,
0010202101101020,
0010201202201020,
1120112011101111,
1001201010012010,
1001201010012011,
1001201010012010,
1001201010012011,
1001201010012010,
1001201010012011,
1001201010012010,
1001201011102000,
4001201020012010,
2001201020012220,
2001201020012010,
2001201020012220,
32221222,
12221222,
1110111011101110,
1010101011111110,
#GOGOEND
#MEASURE 8/4
3,
,
#NEXTSONG Every Night,DJ NEXTON,,Every Night.ogg,350,80,8,3
#BPMCHANGE 175
#MEASURE 4/4
#SCROLL 1.0
#BARLINEON
#DELAY 0.001
EXAM4:r,15,20,m
#MEASURE 4/4
1011202000201020,
21220212,
12220212,
12121212,
1011202000201020,
21220212,
12220212,
12121210,
1011202000201020,
21220212,
12220212,
12121212,
1011202000201020,
21220212,
12220212,
10102120,
#GOGOSTART
1020102210201020,
1020102210201010,
1020102210201020,
1020102210201011,
12121212,
1020102010201011,
12121212,
1020102210221011,
12121212,
1020102210201010,
1020102210201020,
1020102210201011,
12121212,
1020102010201011,
12121212,
1012101210201022,
#GOGOEND
1202102010201020,
1202102210201020,
1202102010201020,
1221101210201020,
1202102010201020,
1202102210201020,
1202102010201020,
1221101210200020,
1202102010201020,
1202102210201020,
1202102210201020,
1122101210201020,
1202201010102010,
1202202210102010,
1202201010102010,
#SCROLL 1.5
50000008,
#SCROLL 1
#GOGOSTART
1022102010201020,
1022101210201020,
1022102010201020,
1122101210201010,
1011201010102010,
1021201210102010,
1011202010102010,
2211201210102010,
1011202210201020,
1011201210112010,
1011202010201020,
2211201210102010,
1011201010102010,
1011201210102010,
1011202010201020,
#SCROLL 1.5
#GOGOEND
3000300030111040,
#SCROLL 0.75
10120121,
00210111,
21010111,
21101021,
20120212,
00210120,
10120111,
20101120,
10120121,
00210111,
21010111,
21101021,
20120212,
00210120,
10120111,
10102120,
#SCROLL 1
#GOGOSTART
1020102210201020,
1020102210201011,
1020102210201020,
1020102210201011,
12121212,
1020102010201011,
12121212,
1020102210221011,
12121212,
1020102210201011,
1020102210201020,
1020102210201011,
12121212,
1020102010201011,
1020102010221022,
102010221011202
#GOGOEND
2,
#GOGOSTART
1020102210201020,
1020102210201010,
1020102210201020,
1020102210201011,
12121212,
1020102010201011,
12121212,
1020102210221011,
12121212,
1020102210201010,
1020102210201020,
1020102210201011,
12121212,
1020102010201011,
12121212,
1012101210201022,
#GOGOEND
1011202000201020,
2011202000201020,
12220212,
1020112010201020,
1011202000201020,
2011202000201020,
12220212,
1020112010201000,
1011202000201020,
2011202000201020,
12220212,
1020112010201020,
1011202000201020,
2011202000201020,
12220212,
#BPMCHANGE 175
#MEASURE 8/4
10001000201020000
#SCROLL 3.000000
400000000000000,
,
#END
