// ===== Made using 0AuBSQ's Dan Chart Maker =====
TITLE:四段
BPM:142
WAVE:Liberation.ogg
DEMOSTART:1.901
SCOREMODE:2

COURSE:Dan
LEVEL:8
BPM:142
BALLOON:31,33
EXAM1:g,99,100,m
EXAM2:a,87,89,m
EXAM3:jb,27,13,l
DANTICK:5
DANTICKCOLOR:#00eeff
#START
#NEXTSONG Liberation,DeBisco,,Liberation.ogg,350,80,8,3
#BPMCHANGE 142
#MEASURE 4/4
#SCROLL 1.0
#BARLINEON
#DELAY 0.211
EXAM4:r,35,42,m
#SCROLL 1.5
500000008000
#SCROLL 1
2222,
#GOGOSTART
1022102010210122,
1011202011102220,
1022102010210122,
1022102050805080,
1022102010210122,
1011202011102220,
1022102010210122,
1012102010222000,
1022102010210122,
1011202011102220,
1022102010210122,
1022102010404000,
1022102010210122,
1011202011102220,
100000200200100000200000100000200100000100101010,
#GOGOEND
1011201202012222,
1102102010221020,
1102102012021020,
1102102010221020,
1102102012022110,
1121202010210120,
1021012010210220,
1021022010221020,
101010100000200200100200000000200200100000200000,
1110220102102010,
0110201210102020,
1102102201201000,
1102102201201000,
1110220102102010,
0110201210102022,
1202102201201000,
5000000080002222,
100000000000100000200000100000200100000000202020,
1020201202021020,
1000102010210020,
1021202120222220,
1000102010210020,
202020200000200000100200000200000200200200200000,
1000102010210020,
1021202120202222,
1000102010210120,
1000102010210120,
1110102010210120,
1110102010210120,
1021012010210120,
1021012010210120,
1022102211221122,
#SCROLL 2
50008000
#SCROLL 1
10102222,
#GOGOSTART
1012102210210122,
1022102012102120,
1012102210210122,
1022102012104000,
1012102210210122,
1022102012102120,
1012102210210122,
1022102010222000,
1022102010210122,
1022102012104011,
1022102010210122,
1022102010404012,
1022102010210122,
1022102012104011,
100000200200100000200000100000200100000100101010,
#GOGOEND
1011201202012222,
1102102010221020,
1102102012021020,
1102102010221020,
1102102012022110,
1121202010210120,
1021012010210220,
1021022010221020,
101010100000200200100200000000200200100000200000,
1110220102102010,
0110201210102020,
1102102201201000,
1102102201201000,
1110220102102010,
0110201210102022,
1202102201201000,
1002020022202222,
1,
,
#NEXTSONG WTF?!,MooX,,MooX - WTF.ogg,350,80,8,3
#BPMCHANGE 100
#MEASURE 4/4
#SCROLL 1.0
#BARLINEON
#DELAY 0.04
EXAM4:r,0,0,m
#SCROLL 1.7
,
10211121,
1000201012102012,
10211121,
100000000000200000100000100100100100200000202020,
10211121,
1000200011112040,
10211121,
1221201120020020,
#GOGOSTART
100100000100200000100100000100100100200100101010,
1101201101020220,
100100000100200000100100000100100100200100101010,
11012010
#GOGOEND
11020220,
#GOGOSTART
100100000100200000100100000100100100200100101010,
1101201101020220,
100100000100200000100100000100100100200100101010,
#GOGOEND
10000022100000221001100110222020,
#GOGOSTART
100100000100200000100100000100100100200100101010,
1101201101020220,
100100000100200000100100000100100100200100101010,
10000010200010002010201010222020,
100100000100200000100100000100100100200100101010,
1101201101020220,
100100000100200000100100000100100100200100101010,
10100011101000111010001120202000,
#GOGOEND
1001001011110100,
30000010000010003010001030202022,
1111211111112111,
1111211111020120,
1111211111112111,
10101010201010101010002000102022,
1111211111112111,
1102110211221222,
#GOGOSTART
10111010200010001011101020100010,
1041104110411041,
10111010200010001011101020100010,
10004010100040101010112000102000,
10111010200010001011101020100010,
1041104110411041,
10111010200010001011101020100010,
20201011202010112020101120201000,
#GOGOEND
3,
,
#NEXTSONG ENDOMANCER,Zovi,,ENDOMANCER.ogg,350,80,8,3
#BPMCHANGE 174.00
#MEASURE 4/4
#SCROLL 1.0
#BARLINEON
#DELAY 0.15
EXAM4:r,115,122,m
#MEASURE 4/4
1011201021102022,
1011201020212020,
1011201020002022,
1011201121002121,
1011201020002022,
1011201020212020,
1011201021012021,
2011201121002121,
1011200011112010,
1011200010102021,
1011200110112011,
1000200110112111,
1000200010112010,
1011200110112021,
1000202210112020,
#SCROLL 0.75
5008,
#SCROLL 1
#GOGOSTART
1021201110212011,
1021201110102111,
2010200110112011,
1010200111112011,
1021201110212011,
1021201110102111,
2010222020102220,
1010202110102222,
1021201110212011,
1021201110102111,
2010200110112011,
1010200111112021,
0021201110212011,
1021201110102111,
2010222020102220,
1020102110102021,
#GOGOEND
2022,
4022,
4010200220102002,
2010200020102011,
2022,
4022,
4010200220102002,
2010200020102011,
2022,
4022,
4010200220102002,
2010200020102011,
2022,
4022,
7,
0008,
2222222202202200,
2222222202202200,
2222222202202200,
2222222202202200,
1111111101101100,
1111111101101100,
1111111101101100,
1111111101101100,
2222222202202200,
2222222202202200,
2222222202202200,
2222222202202200,
2222222202202200,
2222222202202200,
7,
0000000080101210,
#GOGOSTART
1010211120102111,
2010211021201120,
1010211120102111,
2010211021201120,
1010211120102111,
2010211021201120,
1010211120102111,
2010211021201120,
1011211010112110,
1011211010212120,
1011211010112110,
1011211010212120,
1011211010112110,
1011211010212120,
#SCROLL 0.5
#GOGOEND
5,
000000000080
#SCROLL 5
5858,
,
#END
