// ===== Made using 0AuBSQ's Dan Chart Maker =====
TITLE:五段
BPM:150
WAVE:world.ogg
DEMOSTART:83.20
SCOREMODE:2

COURSE:Dan
LEVEL:8
BPM:150
BALLOON:
EXAM1:g,99,100,m
EXAM2:a,89,91,m
EXAM3:jb,30,14,l
DANTICK:5
DANTICKCOLOR:#00afff
#START
#NEXTSONG The World of Our Past,DashyDesu & rainfall,,world.ogg,350,80,8,3
#BPMCHANGE 150
#MEASURE 4/4
#SCROLL 1.0
#BARLINEON
#DELAY 3.201
EXAM4:r,173,210,m
#BPMCHANGE 150
#SCROLL 0.6
11200000,
0,
11200000,
0,
12200000,
0,
12200000,
0,
11203000,
13,
11203000,
44,
12203000,
13,
12204000,
14,
#SCROLL 1
12101022,
1022102010001010,
12121012,
1010202011102020,
12101022,
1022102010001010,
12121012,
1010202011102222,
1011201011201202,
1011201011201212,
1011201011201202,
1011201011201222,
1011201011201202,
1011201011201212,
1011201011201202,
1011201011201222,
1011201011201202,
1011201011201212,
1011201011201202,
1011201011201222,
1011201011201202,
1011201011201212,
1011201011201202,
1011201011201222,
5,
0,
0,
0,
0,
0,
0,
0008,
1011111010201010,
100000101010100000200000200000000100100000100000,
#GOGOSTART
1011201010112011,
1011201120102011,
1011202010112022,
1010202210112210,
13330444,
0011102211201110,
1021001022111020,
1021001122112210,
1011201010112011,
1011201120102011,
1011202010112022,
1010202210112210,
13330444,
0011102211201110,
1021011022111020,
1021011022112211,
#GOGOEND
#SCROLL 0.8
10014010,
01104010,
10114011,
0000100040000001,
10014010,
01104010,
10114011,
0000100040000011,
10014010,
01104010,
10114011,
0000100040000001,
10014010,
01104010,
10114011,
0000101040000011,
1010201040111022,
2020110120001000,
4011101040101010,
4010111040111110,
1010201040111022,
2020110120221020,
4011101040111110,
400000100000100100100000400000100100100000101010,
#SCROLL 1
#GOGOSTART
1002102212021010,
1122102212011010,
1111222211112222,
1111222211112220,
1002102212021020,
1122102212011010,
1122112211221122,
1122112211221120,
1011201011112010,
1101202012022022,
1111111122222222,
1111111122222220,
1011201111102022,
1110221210112010,
1212121212121212,
1212121212121212,
#GOGOEND
,
#NEXTSONG Corrupted Angel,TFD500,,Corrupted Angel.ogg,350,80,8,3
#BPMCHANGE 175
#MEASURE 4/4
#SCROLL 1.0
#BARLINEON
EXAM4:r,0,0,m
#BARLINEOFF
#SCROLL 0.75
22022022,
02100200,
22022022,
11200201,
22022022,
02100200,
11011011,
0011100000200000,
22022022,
02100200,
22022022,
11200201,
22022022,
02100200,
11011011,
0011100000200000,
#GOGOSTART
3011101020001212,
1011201010401010,
3011101020002020,
1011201010401020,
3011101020001212,
1011201010401010,
1011201010112010,
#GOGOEND
0022102022102010,
#GOGOSTART
3011101020001212,
1011201010401010,
3011101020002020,
3011201010401020,
3011101020001212,
1011201010401010,
1011201012202010,
#GOGOEND
0022202022121110,
#GOGOSTART
3011101020001212,
1011201010401010,
3011101020002020,
1011201010401020,
3011101020001212,
1011201010401010,
1011201010112010,
#GOGOEND
0022202022102010,
#GOGOSTART
3011101020001212,
1011201010401010,
3011101020002020,
3011201010401020,
3011101020001212,
1011201010401010,
1011201012202010,
#GOGOEND
0022202022122210,
0022201020000010,
0001101020020020,
0022201020000010,
0001101020020020,
0022201020000010,
0001101020020020,
10010010,
0022200000200000,
11211211,
21121122,
11211211,
21121122,
11211211,
21121122,
10201201,
20120121,
#GOGOSTART
3012101020001212,
1011201010401010,
3012101020002020,
1011201010401020,
3012101020001212,
1011201010401010,
1011201010112010,
#GOGOEND
0022102022102010,
#GOGOSTART
3012101020001212,
1011201010401010,
3012101020002020,
3011201010401020,
3012101020001212,
1011201010401010,
1011201012202010,
#GOGOEND
0022202022121110,
#GOGOSTART
3012101020001212,
1011201010401010,
3012101020002020,
1011201010401020,
3012101020001212,
1011201010401010,
1011201010112010,
#GOGOEND
0022201022221010,
#GOGOSTART
3012101020001212,
1011201010401010,
3012101020002020,
3011201010401020,
3012101020001212,
1011201010401010,
1011201012202010,
#GOGOEND
0022202022122210,
0022201020000010,
0001101020020020,
0022201020000010,
0001101020020020,
0022201020000010,
0001101020020020,
0022201020000010,
00011010200
#SCROLL 0.725
200
#SCROLL 0.7
20,
0
#SCROLL 0.675
200
#SCROLL 0.65
200
#SCROLL 0.625
200
#SCROLL 0.6
200
#SCROLL 0.575
200,
#SCROLL 0.55
200
#SCROLL 0.525
200
#SCROLL 0.5
2000000000,
,
#NEXTSONG Athazagoraphobia,Derpikarp,,Athazagoraphobia.ogg,350,80,8,3
#BPMCHANGE 180
#MEASURE 4/4
#SCROLL 1.0
#BARLINEON
EXAM4:r,12,18,m
#BPMCHANGE 180
22202220,
22202220,
12201220,
12201220,
11201120,
11201120,
11101110,
11101110,
12101210,
12101210,
21202120,
21202120,
11201120,
11201120,
21102110,
21102112,
3,
,
,
,
40404044,
30303033,
40404044,
30303033,
40404044,
30303033,
40404044,
30303033,
40404044,
30303033,
40404044,
30303033,
40404044,
30303033,
40404044,
30303033,
#BPMCHANGE 210
#GOGOSTART
1010201110102011,
1010201122102010,
1010201110102011,
1010201122102010,
1010201110102011,
1010201122102010,
1010201110102011,
1010201122102010,
1010201110102002,
1010201122102000,
1010201110102002,
1010201122102000,
1010201110102002,
1010201122102000,
1010201110102002,
1010201122102000,
#GOGOEND
1010200011110000,
1010200022220000,
1010200011110000,
1010200022220000,
1010200011110000,
1010200022220000,
1010200011110000,
1010200022220000,
1010200011102001,
1010201122102000,
1010200011102001,
1010201122102002,
1010200011102001,
1010201122102000,
1010200011102001,
1010201122102002,
12021202,
1120002010200020,
12021202,
1120002010200020,
12021202,
1120002010200020,
12021202,
1120002010200020,
#GOGOSTART
1010201110102011,
1010201122102010,
1010201110102011,
1010201122102010,
1010201110102011,
1010201122102010,
1010201110102000,
#GOGOEND
1110111011111110,
#GOGOSTART
1010201110102011,
1010201122102010,
1010201110102011,
1010201122102010,
1010201110102011,
1010201122102010,
1010201110102011,
1010201122102010,
1010201110102002,
1010201122102000,
1010201110102002,
1010201122102000,
1010201110102002,
1010201122102000,
1010201110102002,
1010201122102000,
1010201110102011,
1010201122102010,
1010201110102011,
1010201122102010,
1010201110102011,
1010201122102010,
1010201110102011,
1010201122102010,
1010200011102001,
1010201122102000,
1010200011102001,
1010201122102002,
1010200011102001,
1010201122102000,
1010200011102001,
1010201122102002,
#GOGOEND
11010101,
22020202,
12020202,
12020201,
11010101,
22020202,
12020202,
12020201,
12020202,
12020202,
12020202,
12020201,
12020202,
12020202,
12020202,
12020201,
#SCROLL 999
50000008,
,
#END
