// ===== Made using 0AuBSQ's Dan Chart Maker =====
TITLE:六段
BPM:150
WAVE:Overclocked.ogg
DEMOSTART:89.6
SCOREMODE:2

COURSE:Dan
LEVEL:9
BPM:150
BALLOON:80,30,10,21,2
EXAM1:g,100,100,m
EXAM2:jp,1960,2032,m
EXAM3:jb,24,11,l
DANTICK:5
DANTICKCOLOR:#0069ff
#START
#NEXTSONG Overclocked (Pocket Size),DeBisco,,Overclocked.ogg,350,80,8,4
#BPMCHANGE 150
#MEASURE 4/4
#SCROLL 1.0
#BARLINEON
EXAM4:r,93,97,m
#MEASURE 4/4
#SCROLL 0.75
3000000000222220,
2222202222202222,
1000222220222220,
2222202222202222,
1000222220222220,
2222202222202222,
1210121212101212,
100000100100200200100000101010100000100100200200,
#GOGOSTART
#SCROLL 1
1011201202102122,
1011201212102022,
1011201202102122,
1011201212102022,
1011201212102122,
1011201202102122,
1011201212102122,
#GOGOEND
#SCROLL 0.75
2222202222202222,
#GOGOSTART
#SCROLL 1
1011201212102122,
1011201212102022,
1011201212102122,
1011201212102022,
1011201212102122,
1011201212102122,
1011201212102122,
1011201212102022,
#GOGOEND
#MEASURE 1/4
#SCROLL 0.8
1000,
#SCROLL 0.82
1000,
#SCROLL 0.84
1022,
#SCROLL 0.86
1020,
#SCROLL 0.88
1000,
#SCROLL 0.9
1000,
#SCROLL 0.92
1002,
#SCROLL 0.94
1020,
#SCROLL 0.96
1000,
#SCROLL 0.98
1000,
#SCROLL 1
1022,
#SCROLL 1.02
1020,
#SCROLL 1.04
1000,
#SCROLL 1.06
1000,
#SCROLL 1.08
1002,
#SCROLL 1.1
1020,
#MEASURE 1/8
#SCROLL 0.9
1,
#SCROLL 0.92
1,
#SCROLL 0.94
1,
#SCROLL 0.96
1,
#SCROLL 0.98
1,
#SCROLL 1
1,
#SCROLL 1.02
1,
#SCROLL 1.04
1,
#SCROLL 1.06
1,
#SCCROL 1.08
1,
#SCROLL 1.1
1,
#SCROLL 1.12
1,
#SCROLL 1.14
1,
#SCROLL 1.16
1,
#SCROLL 1.18
1,
#SCROLL 1.2
1,
#MEASURE 1/16
#SCROLL 1
1,
#SCROLL 1.02
1,
#SCROLL 1.04
1,
#SCROLL 1.06
1,
#SCROLL 1.08
1,
#SCROLL 1.1
1,
#SCROLL 1.12
1,
#SCROLL 1.14
1,
#SCROLL 1.16
1,
#SCROLL 1.18
1,
#SCROLL 1.2
1,
#SCROLL 1.22
1,
#SCROLL 1.24
1,
#SCROLL 1.26
1,
#SCROLL 1.28
1,
#SCROLL 1.3
1,
#MEASURE 4/4
20001000202010102020100022002020,
#GOGOSTART
20214441,
40004000400010002200200010102000,
20214441,
40004000400010002200200010102000,
2000202240404010,
40004000400010002200200010102000,
20214441,
4040401011121222,
#SCROLL 2
400000
#SCROLL 1.3
100000200200100000400000004000000040000000,
444
#SCROLL 2
608,
#SCROLL 1.3
200200000200101020002000200020001000200010001000,
444444,
100000000000200200200000400000004000000040000000,
444
#SCROLL 2
608,
#SCROLL 1.3
1011221020221120,
404040101212,
#GOGOEND
#MEASURE 1/4
7,
#SCROLL 1
0,
0,
0,
0,
0,
0,
0,
0,
0,
0,
0,
0,
0,
0,
0,
0,
0,
0,
0,
00,
00,
00,
08,
#MEASURE 4/4
200000200100000200100000101000101000200200200200,
100000000000200000200000200000000000100000000000100000000000200020000200200200000000000000000000,
#GOGOSTART
1021201210102122,
1011201212102022,
1021201210102122,
1011201212102022,
1021201210102122,
1011201212102022,
1021201210102122,
1011201212102022,
1021201210102122,
1011201212102022,
1021201210102122,
1011201212102022,
1021201210102122,
1011201212102022,
1021201210102122,
1011201212102022,
#GOGOEND
1000101020010010,
01000000,
1000101020010010,
01002022,
1000101020010010,
01002022,
1010102020020010,
01002021,
1110201020020010,
01000000,
1020202010010020,
02201020,
1002201020020010,
0010000022221111,
1010201020020020,
02012220,
0000202020020020,
02000000,
,
#NEXTSONG The Nostalgic Messenger,CuZi,,TheNostalgicMessenger.ogg,350,80,9,3
#BPMCHANGE 172.00
#MEASURE 4/4
#SCROLL 1.0
#BARLINEON
EXAM4:r,231,294,m
#MEASURE 4/4
#SCROLL 0.500000
0,
00000121,
0,
00000121,
0,
00000212,
0,
00000212,
21112111,
21112121,
21112111,
21112121,
21112111,
21112212,
21112111,
21112212,
21212121,
21212121,
21212121,
21212121,
22222222,
22222222,
5,
00000800,
#SCROLL 1.000000
#GOGOSTART
50814050,
81304
#SCROLL 0.750000
121,
#SCROLL 1.000000
50814050,
81304
#SCROLL 0.750000
121,
#SCROLL 1.000000
50814050,
81304
#SCROLL 0.750000
212,
#SCROLL 1.000000
50814050,
81304
#SCROLL 0.750000
212,
#SCROLL 1.000000
50814050,
8010300040
#SCROLL 0.750000
112010,
#SCROLL 1.000000
50814050,
8010300040
#SCROLL 0.750000
112010,
#SCROLL 1.000000
50814050,
8010300040
#SCROLL 0.750000
201120,
#SCROLL 1.000000
50814050,
8010300040
#SCROLL 0.750000
201120,
#SCROLL 0.500000
#GOGOEND
0,
00000121,
0,
00000121,
0,
00000212,
0,
00000212,
1001011020010120,
2002012020020220,
1001011020010120,
2002012020020220,
1001011020010120,
2002012020020220,
1001011020010120,
2002012020020220,
#SCROLL 0.750000
1001021120020212,
2002022120020222,
1001021120020212,
2002022120020222,
22222222,
22222222,
5,
00008212,
#SCROLL 1.000000
#GOGOSTART
1011011020110120,
2012012020120220,
1011011020110120,
2012012020120220,
1011011020110120,
2012012020120220,
1011011020110120,
2012012020120220,
1011211020010120,
2022112020020220,
1011211020010120,
2022112020020220,
1011211020010120,
2022112020020220,
1011211020010120,
2022112020020220,
1001021120020212,
2002022120020222,
1001021120020212,
2002022120020222,
1001021120020212,
2002022120020222,
1001021120020212,
2002022120020222,
1011021120120211,
2012022110120221,
1011021120120211,
2012022110120221,
11111111,
11111111,
7,
00000008,
#GOGOEND
50814050,
81304121,
50814050,
81304121,
50814050,
81304212,
50814050,
81304212,
50814050,
81304121,
50814050,
81304121,
50814050,
81304212,
50814050,
81304212,
,
#NEXTSONG TRIPLE HELIX,Yonokid,,TRIPLE HELIX.ogg,350,80,9,3
#BPMCHANGE 160
#MEASURE 4/4
#SCROLL 1.0
#BARLINEON
EXAM4:r,120,144,m
#MEASURE 4/4
10010012,
10010011,
10010012,
10010010,
1022102010201020,
1022102010201020,
1022101150008011,
2011225080100200,
1111,
12121212,
1020102010201120,
#SCROLL 2
50
#SCROLL 1
80220200221122,
#GOGOSTART
1010102
#SCROLL 1.5
50
#SCROLL 1
8201020,
1120102010221122,
1020120
#SCROLL 1.5
50
#SCROLL 1
8201020,
1012102010221122,
1122120
#SCROLL 1.5
50
#SCROLL 1
8201020,
101200
#SCROLL 1.5
50
#SCROLL 1
80122122,
1020120
#SCROLL 1.5
50
#SCROLL 1
8201020,
102210
#SCROLL 1.5
50
#SCROLL 1
80221122,
1020112210201020,
101200
#SCROLL 1.5
50
#SCROLL 1
80221122,
1020112210201020,
101200
#SCROLL 1.5
50
#SCROLL 1
80221122,
1122120
#SCROLL 1.5
50
#SCROLL 1
8201020,
101210
#SCROLL 1.5
50
#SCROLL 1
80122122,
1010120
#SCROLL 1.5
50
#SCROLL 1
8201020,
101200
#SCROLL 1.5
50
#SCROLL 1
80221122,
#GOGOEND
1022102210201020,
12121212,
1120112010201020,
1122112211221122,
1021102110201020,
12121212,
1120112010201020,
1122112211221122,
2000001120201020,
1000112020001020,
1120112011202211,
2010201202112211,
2000112020102010,
2000112020102010,
2211211202112011,
2111020202121212,
1020102210201020,
1022102010201022,
1012012001121222,
1202020201112110,
1022102010201020,
1022102010201010,
1012001012001212,
1222122210112010,
#GOGOSTART
1110111022202220,
2222111122221222,
5000801210212111,
2012005000800011,
2001205080201020,
1202021010112110,
2102102121112111,
70000008,
5000000000008022,
1122112211225080,
1012012012012210,
1122112211225080,
1010120210201122,
1020120122020121,
2220111022201222,
1020220210221122,
#GOGOEND
11022012,
11022012,
11022012,
11022012,
7,
0008,
0011221150008011,
2211225000801200,
#SCROLL 8
7800
#SCROLL 1
100010001000,
12121212,
12121212,
3000220200
#SCROLL 1.04
2
#SCROLL 1.08
2
#SCROLL 1.12
1
#SCROLL 1.16
1
#SCROLL 1.2
2
#SCROLL 1.24
2,
#SCROLL 1.28
#GOGOSTART
1010102110201020,
1120102010221122,
1020120110201020,
1012112010221122,
1122120101201020,
1012012010122122,
1020120201201020,
1122101011221122,
1020112210201020,
1012012010221122,
1020112210201020,
1012112110221122,
1122120120201020,
1012102120122122,
1010120210201020,
100100100200100000100000101010200200100100200200,
#GOGOEND
4,
,
#END
