// ===== Made using 0AuBSQ's Dan Chart Maker =====
TITLE:七段
BPM:200
WAVE:PYRAMID.ogg
DEMOSTART:76.8
SCOREMODE:2

COURSE:Dan
LEVEL:9
BPM:200
BALLOON:30,75,55
EXAM1:g,100,100,m
EXAM2:jp,1718,1778,m
EXAM3:jb,16,8,l
DANTICK:5
DANTICKCOLOR:#0032ff
#START
#NEXTSONG PYRΔMiD,TFD500,,PYRAMID.ogg,350,80,9,3
#BPMCHANGE 200
#MEASURE 4/4
#SCROLL 1.0
#BARLINEON
EXAM4:r,28,30,m
#MEASURE 8/4
#SCROLL 0.5
1120000000000000
0000000000000000,
1120000000000000
0000000000000000,
1120000000000000
0000000000000000,
1120000000000000
0000000000000000,
10010010
00000000,
1120000000000000
0000000000000000,
10010010
00101010,
1120000000000000
0000000000000000,
10010010
00101010,
1120000000101010
0000100010002000,
1120002000002000
0000000000102010,
1120000000000000
0000100010001000,
1120002000002000
0000200020002000,
1120000000101010
0000200020002000,
1120001000001000
0000000000101010,
1120000000000000
0000100010001000,
#MEASURE 4/4
#SCROLL 1
11211120,
11211110,
11211111,
12121210,
11211110,
11111120,
11211112,
1012101011101011,
1120102010102000,
22121210,
1120101010201020,
12121210,
1120102010201000,
12121210,
1120101010201020,
12121210,
#MEASURE 8/4
#SCROLL 0.5
10010020
20000000,
10010020
20000020,
10010010
20000000,
10010010
10001000,
10020010
20000000,
10020010
20000020,
10020010
20000010,
10020010
10001000,
#MEASURE 4/4
#GOGOSTART
#SCROLL 1
1122102012021210,
2010120212102010,
1122102012021210,
2020102011221020,
1122102012021210,
2010120212101020,
1122101012021210,
1021202022112010,
1122102012021210,
2010120212102010,
1122102012021210,
2020102011221020,
1122102012021210,
2010120212101020,
1122101012021210,
2020102021212010,
1120100010001022,
1000102210112210,
1120102010201020,
1020102022102120,
1122201011201120,
2111211121112111,
200000200200100000200200100000002000100010001000,
2021202021201111,
1120100010101122,
1020101022112010,
1120100122102210,
111222111222,
1022201010201020,
12121211,
100100200100200000101010200000100000200200100000,
100100100100100100100100100100100100100100101010,
#GOGOEND
#MEASURE 8/4
10010010
10000000,
10010010
10000020,
10010010
10000000,
20010010
10002000,
#SCROLL 0.5
10010010
10000000,
10010010
10000020,
10010010
10000000,
20010020
20202020,
7,
8,
,
#NEXTSONG Katharsis,9C,,khatarsis.ogg,350,80,8,3
#BPMCHANGE 100
#MEASURE 4/4
#SCROLL 1.0
#BARLINEON
EXAM4:r,210,280,m
#MEASURE 4/4
#SCROLL 0.7
7,
00000008,
2210400022104000,
1210400012104000,
1110400011104000,
1120400011204000,
1210401012104000,
1210401012104000,
1120401011204000,
1210401012104000,
1122112211221122,
1122112211221122,
2112211221122112,
1112111211121112,
1122112211221122,
1122112211221122,
2112211221122112,
1112111211121112,
2110211021102110,
2110211021102110,
2111211121112111,
2111211121112111,
10104010101040
#SCROLL 4
58,
#SCROLL 0.7
12104010101040
#SCROLL 4
58,
#SCROLL 0.7
12104012121040
#SCROLL 4
58,
#SCROLL 0.7
101010200000400000100200100200100000400000
#SCROLL 4
500800,
#SCROLL 0.7
1210401012104010,
111200400100111200400100,
4011401140114011,
4141414141414140,
7,
0008
#SCROLL 0.1
5008,
#SCROLL 8
#GOGOSTART
50008000
#SCROLL 1
111110001020000011111000,
10200000111110001020000011111020,
#SCROLL 8
50000080
#SCROLL 1
111110001020000011111000,
10200000111110001020000011111000,
20001110100022201020000011111000,
10200000111110001020000011111020,
#SCROLL 8
50000080
#SCROLL 1
111110001020000011111000,
10200000111110001020000011111020,
#SCROLL 8
50000080
#SCROLL 1
201010001111202020101000,
11112020201010001111202020101000,
#SCROLL 8
50000080
#SCROLL 1
201010201000111120101020,
10001111201010201000111120101020,
#SCROLL 8
580580580580580580580000
#SCROLL 1
200000100000100000000000100100100100200000200000200000100000100000000000,
11112020201010001111202020101000,
#SCROLL 8
50000080
#SCROLL 1
201010201000111120101020,
10001111201010201000111120101020,
#GOGOEND
#BARLINEOFF
5,
0,
8,
,
#NEXTSONG Stories of your negative past,DashyDesu,,story.ogg,350,80,9,3
#BPMCHANGE 188
#MEASURE 4/4
#SCROLL 1.0
#BARLINEON
EXAM4:r,16,20,m
#MEASURE 4/4
0,
0,
0,
0,
10020010,
0,
10000001,
00020000,
10010020,
0,
10101111,
100100100100100010001000100100200000100100200000,
3000200210102010,
1011201202102011,
1110200211202011,
1020201121102011,
1000200210102010,
1011201212102011,
1210200211202011,
100000200000200000100100200100100000202020200200,
1020102210221000,
1020101202111222,
100000200000100000200200100000200010200000000000,
1022101010222011,
1020102211201020,
1022102211201010,
1011201110112010,
200000100100200000100100200020002000200020002000,
#SCROLL 0.75
50000008,
12121221,
11222111,
22121211,
12121212,
12121221,
11222111,
22121211,
11212212,
21121211,
12112122,
12112221,
12121212,
12121221,
11222111,
22121211,
11210230,
0010202010112000,
11220230,
3020201030001110,
31120210,
0010102010222000,
31102111,
22112111,
#SCROLL 1
1010201111102010,
1010201111102010,
1010201111102010,
1010201111102010,
1010201111102010,
1010201111102010,
10101111,
100100100100100100100100101010101010200000000000,
#GOGOSTART
1011200110112210,
1011201202102210,
1020200110112010,
1010201102202011,
1011200110112022,
1010201202102010,
1010201110102011,
100000200000200000100100100100100000200010001000,
1011200112102011,
1010201202102010,
1011201210122210,
1011200210221211,
1010201212102011,
1010201212102020,
1011202010102220,
#GOGOEND
100000200200100000200200100020002000200020002000,
#GOGOSTART
1010201110102210,
1011201202102210,
1020200110102011,
1010201102202011,
1001201110112020,
1010201202102011,
1011201212102011,
100000200000200000100100100020002000200020002000,
1001201110102011,
1010201202102010,
1012102010121020,
100000100100200000000200100000200200100020002000,
1010202010112011,
1010202010222020,
1011202010102220,
100000200200100000200200100200200200102020200200,
#LYRIC ,
#END
