// ===== Made using 0AuBSQ's Dan Chart Maker =====
TITLE:”ª’i
BPM:82
WAVE:stars.ogg
DEMOSTART:59.472
SCOREMODE:2

COURSE:Dan
LEVEL:9
BPM:82
BALLOON:25,5,7,1,10,13,13,25,40
EXAM1:g,100,100,m
EXAM2:jg,307,224,l
EXAM3:jb,16,8,l
DANTICK:5
DANTICKCOLOR:#1400ff
#START
#NEXTSONG Dear Stars,DashyDesu,,stars.ogg,350,80,9,3
#BPMCHANGE 82
#MEASURE 4/4
#SCROLL 1.0
#DELAY 0.028
EXAM4:r,125,141,m 0
#BPMCHANGE 82
122,
11201000,
100100102020102010100200,
1010200010020020,
1022000010001000,
11220121,
1000202010002222,
10221202,
12201022,
10220200,
7,
08,
#BPMCHANGE 164.002
2011211021112110,
1000201000102011,
1000202000102011,
1011201010112010,
2010222000112211,
1000201020102210,
1011201000112210,
1011201120222030,
0020303000221211,
1011202000102010,
0011201022112022,
1022203000300030,
0030302210221010,
1011201102102010,
1011202102102010,
1202102012021010,
1110221022112210,
#GOGOSTART
1011201110102011,
1011201022012011,
1011201122102011,
1022203022112011,
1011201210222010,
1011221020112020,
33040403,
0030403022112211,
1002102012201022,
1002102011221020,
1122102011221020,
1122201110201020,
1102102012201022,
1022122011111030,
30440040,
3011202210210210,
#GOGOEND
#BPMCHANGE 82
11221022,
11117080,
#BPMCHANGE 164.002
5000801121112110,
1002007000008010,
2012012020120120,
1122022210201020,
50000000800012000000100020002000,
1122207080201020,
1110222011112220,
1021021030004000,
7000000000008022,
10000000100012000000200000001000,
0011202011102020,
1022201022102211,
5008,
5008,
3333,
2110211021212111,
#GOGOSTART
1011201022012011,
1011211022022010,
1011221011012210,
1022201110201020,
1011201011012022,
1012101122020210,
1102102211021011,
2111201121212121,
2011201121102011,
2011201121212011,
2011211021112011,
2011201122112020,
7008,
7008,
60000008,
1111222211221212,
#GOGOEND
#BPMCHANGE 88
0,
11201000,
100022111100,
1010200010010020,
1022000010001000,
1212,
1010202010002222,
11,
1000100
#BPMCHANGE 82
0,
#BPMCHANGE 76
1010
#BPMCHANGE 70
2020
#BPMCHANGE 64
1010
#BPMCHANGE 57.99999999999999
2020
#BPMCHANGE 53
1020
#BPMCHANGE 47
0000
#BPMCHANGE 41
0000
#BPMCHANGE 35
000
#BPMCHANGE 70
0,
#BPMCHANGE 24
3
#BPMCHANGE 33
2
#BPMCHANGE 43
2
#BPMCHANGE 53
1
#BPMCHANGE 63
1
#BPMCHANGE 73
2
#BPMCHANGE 83
2
#BPMCHANGE 93
1,
#BPMCHANGE 103
1
#BPMCHANGE 112.00000000000001
2
#BPMCHANGE 122
2
#BPMCHANGE 132
1
#BPMCHANGE 142
1
#BPMCHANGE 152
2
#BPMCHANGE 162
2
#BPMCHANGE 172
1,
,
#NEXTSONG Forever Fading Away,DashyDesu,,Forever Fading Away.ogg,350,80,9,3
#BPMCHANGE 200
#MEASURE 4/4
#SCROLL 1.0
#DELAY 0.029
EXAM4:r,35,49,m
#BPMCHANGE 200.000000
#MEASURE 4/4
2222200200202000,
2020200200202000,
2222200200202000,
2020200200202000,
2222200200202000,
2020200200202000,
2222200200202000,
2222200200202000,
1011101120002000,
1011101020221000,
1011101120102000,
1011101010221022,
1011101120001000,
1011101010221000,
11111111,
1111111111111111,
1011101120001000,
1011101010221000,
1011101120001000,
1011101010221022,
1011101120001000,
1011101010221000,
1011101120001000,
1011101010221022,
1011101120102000,
1011101010221000,
1011101120102000,
1011101010221022,
1011101120102000,
1011101010221000,
1011101120102000,
1011111010221022,
1021001040000010,
1000101010211000,
1021001040000010,
1021021010201000,
1021001040000010,
1000101010211000,
1021001040000010,
1021021010202222,
1021001040000010,
1000101010211000,
1021001040000010,
1021021010201020,
1021001040000010,
1000101010211000,
1021001040000010,
1021021010201020,
10121212,
1000101010201110,
10121212,
1022101011201120,
10121212,
1000101010201110,
10121212,
1022101011201120,
1000112210001000,
10111210,
1000122210001000,
10111212,
1000112210001000,
10111210,
1000122210001000,
10111212,
#SCROLL 0.5
11,
21,
12,
21,
1,
12,
1,
2,
12,
12,
11,
22,
1,
12,
25,
00080
#SCROLL 1
222,
#GOGOSTART
3020102210221020,
1020102010222020,
1020102010221020,
1022102011102000,
1011102010221020,
1011102010201000,
30440303,
0011102011102000,
1011201011102000,
1011201011202000,
11221122,
1110222011102220,
6008,
33,
4141,
3000101010101111,
1020102210221020,
1020102010222020,
1020102010221020,
1022102011102000,
1011102010221020,
1011102010201000,
30440303,
0011102010022020,
1011201011102000,
1011202010222000,
11221122,
1110222011102220,
6008,
1111200011222000,
2222100022111000,
1111101022222220,
1011101010111010,
2022202020222000,
1011101010111010,
2022202020222000,
1011101020222000,
1011101020222000,
1011101020222000,
1011202010112000,
1011101010111010,
2022202020222000,
1011101010111010,
2022202020222000,
1011101010111010,
2022202020222000,
1011101010111010,
2022202020222000,
1011101010111010,
2022202020222020,
1011101010111010,
2022202020222020,
1011101020222020,
1011101020222020,
1011101020222020,
1011202010112020,
1011101010111010,
2022202020222020,
1011101010111010,
2022202020222020,
1011101010111010,
2022202020222020,
#GOGOEND
#BPMCHANGE 400
#SCROLL 0.5
1111,
1111,
#BPMCHANGE 800
#SCROLL 0.4
1111,
1111,
1111,
1111,
#BPMCHANGE 200
#SCROLL 1.000000
1011101040002000,
1011101040221000,
1011101040002000,
1011101040221022,
1011101040002000,
1011101040221000,
1011101040002000,
10111010302210
#SCROLL 2
44,
,
#NEXTSONG Deceiving the Deceiver,H5,,DeceivingTheDeceiver.ogg,350,80,9,4
#BPMCHANGE 175
#MEASURE 4/4
#SCROLL 1.0
#DELAY 0.0
EXAM4:r,40,60,m
#BARLINEOFF
#MEASURE 1/4
0022,
#BARLINEON
#MEASURE 4/4
20020010,
00000012,
1000000000000011,
2000001000000022,
10000012,
20010020,
1000000000000011,
20020010,
12121210,
1021102110201000,
1020102110201000,
1120102110201000,
12121210,
1021102110201000,
1020102110201000,
20002000111010102000200000001010,
0000202022022022,
2020220220202022,
2020220220202022,
2020220220202222,
2020220220202022,
2020220220202022,
2020220220202022,
2020102011101020,
1011202010112020,
1011202010112020,
1021102010211020,
1021102010211020,
2011201020112010,
2011201020112010,
1021102010211020,
1020102011221122,
#GOGOSTART
1010120120112020,
1010120120112020,
1020120120112020,
1020210210112010,
1010120120112020,
1010120120112020,
1020120120112020,
1020210210211010,
#GOGOEND
2020020020020020,
0020020020020020,
#GOGOSTART
1020120120112020,
1020210210112010,
1010120120112020,
1010120120112020,
1020120120112020,
1020210210112121,
#GOGOEND
0011202010112020,
1011202010112020,
1021102010211020,
1021102010211020,
2011201020112010,
2011201020112010,
1021102010211020,
1122112211221122,
11220000,
0000002220020020,
10020020,
12001200,
11220000,
0000002220020020,
10020022,
1020001011112222,
00
#SCROLL 3
30030030030030,
#SCROLL 1
1010201110201212,
00
#SCROLL 3
30030030030030,
#SCROLL 1
1211201211202222,
00
#SCROLL 3
30030030030030,
#SCROLL 1
1010201110201212,
00
#SCROLL 3
30030030030030,
#SCROLL 1
1211201211202222,
0010010020020012,
0010010020020012,
2010010020020012,
0010010020020012,
2012102110121021,
2012102110121021,
22222222,
2222222222222222,
7,
0008,
#GOGOSTART
1020120120112020,
1020210210112012,
1010120120112022,
1010120120112020,
1020120120112020,
10
#SCROLL 3
40040040040040,
#SCROLL 1
1010120120112022,
1010120120112020,
1020120120112020,
1020210210112021,
1010120120112122,
1010120120112120,
1020120120112120,
20201010202010102020101011101110,
#GOGOEND
200020002000200020002000200000000000100000000000000000000000000000000000200200200000200000200000,
20000000000000000000000022022020,
2000000000000022,
1111112000000011,
20000011,
20010020,
5000800000000022,
7,
,
8,
,
#END
