// ===== Made using 0AuBSQ's Dan Chart Maker =====
TITLE:十段
BPM:90
WAVE:Rainy Night ~ Dream ~.ogg
DEMOSTART:21.333
SCOREMODE:2

COURSE:Dan
LEVEL:10
BPM:90
BALLOON:15,20,2
EXAM1:g,100,100,m
EXAM2:jg,94,50,l
EXAM3:jb,9,4,l
DANTICK:5
DANTICKCOLOR:#a600ff
#START
#NEXTSONG Rainy Night ~夢幻想~,Taichenko,,1.ogg,350,80,9,3
#BPMCHANGE 90
#MEASURE 4/4
#SCROLL 1.0
#BARLINEON
EXAM4:r,15,15,m
EXAM5:jg,27,14,l
#BPMCHANGE 90
10210121,
20120201,
1,
22,
1020012010200121,
1020012010201202,
12020202,
1020002010200400,
#BPMCHANGE 180
#GOGOSTART
1000201110002000,
0011201022102011,
1010201110102000,
1020002000221020,
1010201110102000,
1020001022102010,
2010102000102011,
1010201122102010,
21021020,
0011201021102010,
20120100,
1000201120102000,
1110201000112010,
1020101120102010,
2010102011102010,
1020111020111120,
#BPMCHANGE 90
#GOGOEND
1020002000200022,
2020002000200022,
12020202,
2020002000200400,
#GOGOSTART
#BPMCHANGE 180
1110201202112011,
1010201002112010,
2010201102112010,
2001201102102112,
1010201110102011,
1020101120102010,
2210102210102011,
2010201120102000,
#GOGOEND
1000201000102011,
1000201000102011,
11210121,
0011201000201020,
1110201000102010,
0010201022102010,
2210201020101020,
0020102012102020,
#GOGOSTART
1211202120102012,
1010201110102212,
1021201000102000,
30230232,
1210201120102210,
2011201022102210,
#BPMCHANGE 90
#GOGOEND
70000008,
100000000000
#SCROLL 1.05
200000000
#SCROLL 1.1
200000
#SCROLL 1.15
200
#SCROLL 1.2
100000
#SCROLL 1.25
200
#SCROLL 1.3
100
#SCROLL 1.35
200
#SCROLL 1.4
200
#SCROLL 1.45
100
#SCROLL 1.5
100
#SCROLL 1.55
200
#SCROLL 1.6
100
#SCROLL 1.65
200
#SCROLL 1.7
100
#SCROLL 1.75
100
#SCROLL 1.8
200
#SCROLL 1.85
100000
#SCROLL 1.875
100
#SCROLL 1.9
100
#SCROLL 1.925
200
#SCROLL 1.95
200
#SCROLL 1.975
202020,
#BPMCHANGE 180
#GOGOSTART
#SCROLL 1
1011202102102012,
1010201122102212,
1011202101212011,
1020221000221020,
#BPMCHANGE 185
1010201110221010,
2210201122102010,
2012201021202011,
1020101120102000,
#BPMCHANGE 190
1020101120102011,
1020121202102011,
1021201002102011,
1010201210102222,
#BPMCHANGE 195
1010201110202210,
1022101022102000,
2010102011102010,
1020111120111111,
#BPMCHANGE 200
1011201202112011,
1020111120102212,
1022102102102011,
2010201110201111,
#BPMCHANGE 205
1010201210201011,
2010221020112010,
2210102210102211,
1022101022121020,
#BPMCHANGE 210
1210201110102011,
1010201122102212,
1022101122102011,
1020101122112222,
#BPMCHANGE 215
1010201110201111,
2011112022102010,
#BPMCHANGE 220
21
#BPMCHANGE 210
12
#BPMCHANGE 200
11
#BPMCHANGE 190
21,
#BPMCHANGE 180
12
#BPMCHANGE 170
11
#BPMCHANGE 160
2112,
#BPMCHANGE 90
#GOGOEND
3,
#BARLINEOFF
0,
#BARLINEON
10002002,
20002002,
2,
2,
10002002,
20002002,
1,
,
#NEXTSONG Chasing the Wind,DashyDesu,,2.ogg,350,80,10,4
#BPMCHANGE 168
#MEASURE 4/4
#SCROLL 1.0
#BARLINEON
#DELAY 0.894
EXAM4:r,22,22,m
EXAM5:jg,31,16,l
#SCROLL 2
#MEASURE 3/8
#BARLINEOFF
44,
#MEASURE 4/4
#BARLINEON
#SCROLL 1
3011201202112012,
0210201120211210,
1011201202112012,
0210201121120220,
3021012010112012,
0210201120211210,
1021012010112012,
0210201120121220,
1011201020121020,
0011202211221020,
1021201020112110,
0211201120210210,
1011201020121020,
000000200000102020100000100100200200100200200000,
2022102020121020,
0200201121212210,
#SCROLL 0.85
1011201040112010,
0011201040112112,
1021201040112120,
1021220120112212,
1022201040112010,
0011212040112110,
#SCROLL 1
33443444,
1021121121102210,
#GOGOSTART
1021112011211020,
1221021020112210,
1011211201212020,
4040304000112211,
1122211222112010,
2121212211112010,
2221222122112211,
1021221000112210,
1021112011211020,
2021221201112110,
1011211201212020,
4040304022121121,
1122211222212010,
2121212222120220,
#GOGOEND
#SCROLL 1
2012012010211020,
1021212010212210,
2012012010212120,
1121012020212020,
1211202010122020,
1021212010212210,
1121201210122210,
2211212212112122,
#SCROLL 0.75
1020120020000121,
1120020020000020,
1020120120120121,
1120120212211210,
1111102222201110,
2222201111102220,
#SCROLL 1
3030404030302222,
10
#SCROLL 1.1
400
#SCROLL 1.2
400
#SCROLL 1.3
400
#SCROLL 1.4
400
#SCROLL 1.5
40,
#MEASURE 2/4
#BARLINEOFF
0
#SCROLL 1.6
400
#SCROLL 1.7
400
#SCROLL 1.8
7,
#BARLINEON
#MEASURE 1/16
#SCROLL 1.9
,
#SCROLL 2
,
#SCROLL 2.1
,
#SCROLL 2.2
,
#SCROLL 2.3
,
#SCROLL 2.4
,
#SCROLL 2.5
,
#SCROLL 2.6
,
#MEASURE 1/32
#SCROLL 2.8
,
#SCROLL 2.9
,
#SCROLL 3
,
#SCROLL 3.1
,
#SCROLL 3.2
,
#SCROLL 3.3
,
#SCROLL 3.4
,
#SCROLL 3.5
,
#SCROLL 3.6
,
#SCROLL 3.7
,
#SCROLL 3.8
,
#SCROLL 3.9
,
#SCROLL 4
,
#SCROLL 4.2
,
#SCROLL 4.4
,
#SCROLL 4.6
,
#SCROLL 4.8
,
#SCROLL 5
,
#SCROLL 5.2
,
#SCROLL 5.4
,
#SCROLL 5.6
,
#SCROLL 5.8
,
#SCROLL 6
8,
#SCROLL 6.5
,
#MEASURE 1/4
#SCROLL 1.1
#BARLINEOFF
2022,
#GOGOSTART
#MEASURE 4/4
#BARLINEON
1021112011211020,
1221021020112210,
1011211201212020,
4040304000112211,
1122211222112010,
2121212211112010,
2221222122112111,
1021221000112210,
1021112011211020,
2021221201112110,
1011211201212020,
4040304022121121,
1122211222212010,
21212122212211
#GOGOEND
70,
#SCROLL 4
800000000000000000000000
#SCROLL 1
22002020,
#GOGOSTART
1120120121120120,
1120120211212210,
2211111122112111,
2112012022112111,
1122211222112010,
2121212211112010,
2221222122112111,
1021221000112210,
1120120121120120,
1120120211212210,
2211111122112111,
2112012022112111,
1122211222112010,
21212122212220
#GOGOEND
40,
,
,
,
#NEXTSONG Yukianesa ~Azure of Ice~,Sukima Altera,,3.ogg,350,80,10,4,true
#BPMCHANGE 170
#MEASURE 4/4
#SCROLL 1.0
#BARLINEON
#DELAY 0.004
EXAM4:r,0,0,m
EXAM5:jg,45,23,l 100000202020100000200200100000202020100000200200,
100000202020100000200200100000202020100000200200,
100000202020100000200200100000202020100000200200,
100000202020100000200200100000202020100200200200,
100000102020100000200200100000102020100000200200,
100000102020100000100200100000102020100000100200,
100000100000100000100000101010101010100100100100,
1111201212102000,
#GOGOSTART
1110112011101120,
1210212012102120,
1120122011201220,
1022102110221212,
1220112012201120,
1210112012101120,
1120122011201220,
100000200200100000200200100100202020100100202020,
1021011210210122,
1021011210210122,
1121012211210122,
1121220211212202,
1011201120112010,
3011201120122010,
32223222,
100100200200100100200200101010200200101010200200,
#GOGOEND
1,
,
#BPMCHANGE 85
30
22,
1000
1002,
1000000000002020
2000100020000022,
10000000000000000000000010002000
20000000100000002000000020000001,
20000022
10102020,
10020201
20000012,
2002
2010,
2000
2212,
#BPMCHANGE 170
3010201011102010,
1210201011102010,
1120201011202010,
1220201012201020,
1110201011102010,
1210201011102010,
1120201011202010,
1220201012201020,
1110211011102110,
1210211011102110,
1120211011202110,
1220211012201210,
1110201011102010,
1210201012102010,
1120201011202010,
2111211122112210,
3222,
12202120,
11202020,
1021012010210120,
3222,
12202120,
11202120,
1121012012210120,
30202120,
10212120,
31120201,
3021112010212120,
1121011211210112,
100200200100000100200200100000200200100000202020,
100000100100000100100000100000100100000100101010,
1011201211102000,
#GOGOSTART
1121012011210121,
1221012012210122,
1112012011120121,
2112012121120121,
1121012011210122,
1221012012210122,
1112012022121120,
3022102211221122,
1121012011210121,
1221012012210122,
1112012011120121,
2112012121120121,
1121012011210122,
1221012012210122,
1112012021121120,
3022102210210210,
1121012011210121,
1221012012210122,
1112012011120121,
2112012121120121,
1221012012210122,
1121012011210122,
1112012022121120,
2210211022112110,
1121012011210122,
1121012111210122,
1121021012210212,
2112012121220120,
#SCROLL 0.85
1000001120000011,
1021021020112110,
#SCROLL 1
100000200100000200100200100000200100000200102020,
1110201212102000,
#GOGOEND
1011202110112022,
1011201210211120,
1011202110112022,
1011201210112210,
1011202110112022,
1011201210212120,
1011202110112022,
1011201220122210,
1011201210212212,
1022102110112012,
1011201202102012,
1011201211102012,
1010201110102012,
100100100100100100100100202020100000200200100200,
1021021010210210,
100000202010000202010000200200100200200100202020,
1,
,
,
#END
