// ===== Made using 0AuBSQ's Dan Chart Maker =====
TITLE:超人
BPM:90
WAVE:br.ogg
DEMOSTART:21.80
SCOREMODE:2

COURSE:Dan
LEVEL:11
BPM:90
BALLOON:5,75,75,10,1,30,10,2,3,59
EXAM1:g,100,100,m
EXAM2:jg,27,11,l
EXAM3:jb,6,3,l
DANTICK:5
DANTICKCOLOR:#ff009c
#START
#NEXTSONG Broken Metronome,DashyDesu,,1.ogg,350,80,10,4
#BPMCHANGE 90
#MEASURE 4/4
#SCROLL 1.0
#BARLINEON
#DELAY -1.967
EXAM4:r,0,0,m 000000000000000000000000000000000000000000000000000000000000000000000000202000000100100000100000,
30001000200010101000101120002000,
1011201112112010,
10021010200010101020001020201000,
10001010200010101021121120011010,
30001000200010101000101120002000,
10001010200010101020101020011010,
10021010200010101020001020201000,
10001010200010101021121120011010,
#BPMCHANGE 180
1001201110112010,
1001201112012011,
1001201110102211,
1001221011212022,
1021221110112010,
1021221112012011,
1021221221021221,
1221221011212022,
#BPMCHANGE 240
#SCROLL 0.75
122122122122,
#SCROLL 0.8
122122
#SCROLL 0.9
122122,
#SCROLL 1
1011201110112210,
1011202212112011,
1011201110112110,
1121202210112210,
1011201110112010,
1011202210112011,
1022102010221020,
2211222211112211,
#GOGOSTART
1022102010221020,
1122102012221040,
1011202210201010,
12121211,
1022102010221020,
1122102012221040,
1011202210201010,
12121211,
1022201022201022,
2010222011111000,
1022201022201022,
2010222011112220,
2211102211102222,
1022221021112111,
#GOGOEND
2
#BPMCHANGE 160
#SCROLL 1.5
0101010
#SCROLL 1.35
20101010
#SCROLL 1.2
20101010
#SCROLL 1.05
20101000,
#SCROLL 1
1111,
1111,
1111,
1000100010001022,
30112011,
02112000,
10112201,
12102210,
10112021,
00112001,
10112202,
12102010,
30112011,
02112000,
10112201,
12102210,
10112021,
00112001,
10112202,
12102010,
100000000000000
#BPMCHANGE 190
0,
10101110,
1001201110112010,
1001201112012011,
1001201110102211,
1001221011212022,
1021221110112010,
1021221112012011,
1021221221021221,
1221221011212022,
10202010222010202010202010202010,
200200100200200100200200100200200200100000202020,
10202010222010202010202010202010,
2212212212221000,
10202010222010202010202010202010,
200200100200200100200200100200200200100000202020,
10202010222010202010201010202020,
#BPMCHANGE 250
#SCROLL 0.76
122122
#SCROLL 0.86
122
#SCROLL 0.96
122,
#SCROLL 1
#GOGOSTART
1022102010221020,
1122102012221040,
1011202210201010,
12121211,
1022102010221020,
1122102012221040,
1011202210201010,
1212121
#GOGOEND
1,
#GOGOSTART
1022102010221020,
1122102012221040,
1011202210201010,
12121211,
1022102010221020,
1122102012221040,
1011202210201010,
#GOGOEND
201102111201,
#GOGOSTART
1022201022201022,
2010222011112222,
1022201022201022,
2010222011112220,
2211102211102222,
1022221021112011,
2211102211102211,
1022111040000000,
#GOGOEND
,
,
,
#NEXTSONG BassBoL,InterChan,,2.ogg,350,80,10,3
#BPMCHANGE 210
#MEASURE 4/4
#SCROLL 1.0
#BARLINEON
EXAM4:r,186,191,m
#BARLINEOFF
#SCROLL 0.6
1,
0100,
1,
,
1,
0100,
1,
,
#SCROLL 0.75
11,
0101,
11,
0101,
12,
0121,
12,
0121,
10012010,
01002001,
10012011,
#SCROLL 0.9
#BARLINEON
01102101,
11012011,
222200100000200000100000,
#SCROLL 1
1000001120001020,
1022110022102222,
#SCROLL 0.7
1
#SCROLL 0.72
2
#SCROLL 0.74
2
#SCROLL 0.76
2,
#SCROLL 0.78
2
#SCROLL 0.8
2
#SCROLL 0.82
2
#SCROLL 0.84
2,
#SCROLL 0.86
2
#SCROLL 0.88
2
#SCROLL 0.90
2
#SCROLL 0.92
2,
#SCROLL 0.94
2
#SCROLL 0.96
2
#SCROLL 0.98
2
#SCROLL 1
2,
2010221120102111,
2010221120102111,
2121212121212121,
100200200200200200200200202020202020202020202020,
700008
#SCROLL 3
40,
#SCROLL 1
100000101010200000200100100000200000100000200000,
1011202110212020,
1011202110201020,
1011202211112210,
100000101010200000200100100000200000100000200000,
1011202110212020,
1021102210221022,
#SCROLL 1.05
10
#SCROLL 1.1
10
#SCROLL 1.15
10
#SCROLL 1.2
1
#SCROLL 1.175
1
#SCROLL 1.15
20
#SCROLL 1.1
2
#SCROLL 1.075
2
#SCROLL 1.05
10
#SCROLL 1
20,
#BPMCHANGE 420
#MEASURE 8/4
#SCROLL 0.5
100000101020100000200200100000200000100000200000,
101210121020
#SCROLL 0.375
1010,
#SCROLL 0.5
1012102210201020,
101122102212
#SCROLL 0.25
3000,
#SCROLL 0.5
1012102210201012,
1012101210202012,
1011221030122210,
2211221112122212,
#BPMCHANGE 210
#MEASURE 4/4
#SCROLL 1
10
#SCROLL 0.75
22,
11211211,
11211211,
11211211,
21121121,
11211211,
11211211,
11211211,
21121121,
11211211,
11211211,
11211211,
2010102011102011,
2011201021102210,
2011201021102110,
2021202021202120,
2211112211112211,
#SCROLL 2
#BARLINEOFF
#MEASURE 1/4000
3,
#SCROLL 1
#MEASURE 499/4000
#BARLINEON
,
#MEASURE 1/8
,
,
,
,
,
,
,
,
,
#SCROLL 2
#BARLINEOFF
#MEASURE 1/4000
3,
#SCROLL 1
#MEASURE 499/4000
#BARLINEON
,
#MEASURE 1/8
,
,
,
,
,
#SCROLL 2
#BARLINEOFF
#MEASURE 1/4000
3,
#SCROLL 1
#MEASURE 499/4000
#BARLINEON
,
#MEASURE 1/8
,
,
,
,
,
,
,
,
,
,
,
,
,
,
,
#SCROLL 2
#BARLINEOFF
#MEASURE 1/4000
3,
#SCROLL 1
#MEASURE 499/4000
#BARLINEON
,
#MEASURE 1/8
,
,
,
,
,
,
,
,
,
#SCROLL 2
#BARLINEOFF
#MEASURE 1/4000
3,
#SCROLL 1
#MEASURE 499/4000
#BARLINEON
,
#MEASURE 1/8
,
,
,
,
,
#SCROLL 2
#BARLINEOFF
#MEASURE 1/4000
3,
#SCROLL 1
#MEASURE 499/4000
#BARLINEON
,
#MEASURE 1/8
,
,
,
,
,
,
,
,
11,
20,
1,
22,
1,
22,
1,
#MEASURE 4/4
3232,
3232,
32223222,
32223222,
2011201020112010,
2121202021212020,
201010201010201010201010200100200100200100200100,
1020202220203000,
#BPMCHANGE 105
#MEASURE 2/4
#SCROLL 1.5
#GOGOSTART
10001010200010002200220022002200,
1011201022201110,
100000100100200000100000202020200000101010100000,
1212122212221222,
10001010200010002200220022000000,
1011201022201110,
100000100100200000100000202020101010200200200000,
1012102210121022,
#BPMCHANGE 210
#MEASURE 4/4
#SCROLL 1
1011201110112012,
1011201210212022,
1011201110112012,
1021102011211022,
2011201021102011,
2011201121102011,
2021212020212120,
2211221212112000,
#GOGOEND
1011202012112020,
#GOGOSTART
3011201220112212,
1020201120201021,
2010201120404040,
3011201020101122,
1011201220112212,
1020201120201021,
2010201121121120,
#GOGOEND
7,
#BARLINEOFF
,
,
0008,
7,
,
,
#BPMCHANGE 105
#MEASURE 2/4
0000000000008011,
1121,
0121,
0121,
0121,
0121,
0121,
0121,
0121,
#BARLINEON
#SCROLL 0.75
#BPMCHANGE 210
#MEASURE 4/4
2000201120002020,
2000202022202020,
2000201120202022,
2020201122202020,
200200200200200200200222,
200000200000200000200000200200200000202020200000,
200200200200200200200222,
200200200200222200222200,
2011201020112110,
2011201020112110,
2110211021102110,
211111200200200200200200,
200200200000200200200000202020200000200200200000,
222200222200222200222200,
220110220110220110220110,
202000202000202000202000200200100000200200100000,
1000
#SCROLL 1
401110112012,
1012202211221212,
1011201211201120,
1110201221202012,
1011201110112012,
1022101211221222,
1211201220221122,
1220120210102020,
#BPMCHANGE 105
#MEASURE 2/4
#SCROLL 1.5
1011101020001120,
1210121020112121,
0101101020001120,
0110201120222020,
#BPMCHANGE 210
#MEASURE 4/4
#SCROLL 1
1011202210112022,
1011202210112022,
1010202010212120,
1122112212121000,
#GOGOSTART
3011201210112012,
1011201210112210,
1110201212102011,
1110222011102210,
1011201210112012,
1011201210112220,
1110211022102210,
1110002210102000,
70008120,
1011201210112210,
1011201000112010,
0011201210112000,
300300122222100300122222,
100300112222100300112222,
12323232,
32332300,
#GOGOEND
#SCROLL 2
78
#SCROLL 1
60000000000000,
0800,
,
#NEXTSONG Halcyon,Akako Hinami,,3.ogg,350,80,10,3
#BPMCHANGE 200
#MEASURE 4/4
#SCROLL 1.0
#BARLINEON
#DELAY 1.217
EXAM4:r,101,105,m 3,
,
,
#SCROLL 1.5
100000100000200000100200200200100101010200202020,
#SCROLL 1
1011201110112011,
2011112011112110,
1011201110112011,
1021102110212011,
1011201110112011,
2011112011112110,
2011122011222011,
1010201212102212,
1011201110112011,
2011112011112110,
1011201110112011,
1021012011212011,
1011201110112011,
2011112011112110,
2010112010112010,
1011201122101020,
3,
,
100000100000200000100200100200100000202020202020,
#SCROLL 1.5
33034033,
0440
#SCROLL 1
2212,
#SCROLL 1.5
33034033,
0440
#SCROLL 1
1221,
#SCROLL 1.5
33034033,
0440
#SCROLL 1
2212,
#SCROLL 1.5
33034033,
0440
#SCROLL 1
1221,
1011101110111011,
2022202220221012,
1012102220112021,
2011201220102222,
11212121,
#SCROLL 1.25
2010201020102222,
#SCROLL 1.5
1011201022102222,
#SCROLL 0.75
100000100000200000100200200200100101010200202020,
#SCROLL 1
#GOGOSTART
1111201210221020,
1221201210211020,
1212201220121020,
1121201120112210,
1111201210221020,
1221201210211020,
2212102210211020,
1121102110212022,
1111201210221020,
1221201210211020,
1212201220121020,
1101201111012011,
1111201210221020,
1221201210211020,
2212102211211020,
1212121211111012,
#GOGOEND
#SCROLL 2
#MEASURE 12/4
3,
#SCROLL 0.5
#MEASURE 4/4
10000122,
#BARLINEOFF
1022,
10020000,
01,
10000122,
1022,
20010000,
01,
#BARLINEON
#SCROLL 0.75
11012111,
01112111,
11012111,
0010101020102222,
11012111,
01112111,
7,
#BARLINEOFF
0008,
#SCROLL 1.33
#BARLINEON
211211211211211211211211,
7008,
#SCROLL 1.5
33034033,
00404000
#SCROLL 1
22201120,
#SCROLL 1.5
33034033,
0440
#SCROLL 1
3368,
#SCROLL 1.5
33034033,
00404000
#SCROLL 1
22201120,
#SCROLL 1.5
33034033,
00404000
#SCROLL 1
10222010,
1012101210121011,
2021202120221012,
1012102220112021,
2011201220102222,
11212121,
#SCROLL 1.25
2010201020102222,
#SCROLL 1.5
1011201110112222,
10
#SCROLL 0.75
787080,
#SCROLL 1.5
100000100000202020202020100000100100101010100000,
#SCROLL 1
#GOGOSTART
1121112111211121,
1121112111212211,
1121112111211121,
1121112122112211,
1121112111211121,
1121112111212211,
1121112111211121,
#GOGOEND
100000100000202020202020100000100100101010100000,
#GOGOSTART
1121112111211121,
1121112111212211,
1121112111211121,
1121112122112211,
1121112111211121,
1121112111212211,
1121112111211121,
2112112211212122,
#GOGOEND
#SCROLL 4
,
#GOGOSTART
6,
,
000000806868686860008000
#SCROLL 1
10101010,
#GOGOEND
,
,
#NEXTSONG Re:Cøllapse,H888. (H5 + DashyDesu),,4.ogg,350,80,11,4,true
#BPMCHANGE 215
#MEASURE 4/4
#SCROLL 1.0
#BARLINEON
#DELAY 0.023
EXAM4:r,58,59,m
#MEASURE 4/4
#SCROLL 0.25
#BARLINEOFF
1,
,
2,
1,
1,
01,
21,
10001000200020
#SCROLL 1.5
#BARLINEON
11,
#GOGOSTART
101010100202020200101010100202020200101010100100,
#GOGOEND
#SCROLL 1
4444,
444
#SCROLL 5.888
4,
#SCROLL 1
1120102011201020,
112010202020
#SCROLL 5.888
4000,
#SCROLL 1
1110111110101111,
101010111010
#SCROLL 5.888
4000,
#SCROLL 1
12001200120010001200100012001000,
100200000000100000000000100200000000100000000000100200000000100000000000
#SCROLL 5.888
400000000000
#SCROLL 1
100010001000,
2000001111111011,
100000100100000100100000100100100100100000101010,
2000001111111011,
100000100100000100101010200000002000000020000000,
200000000000101010200200200100100100100000100100,
100000100100000100100000100100100100100000101010,
11101010,
100000100000100000100111,
1010102110112021,
100000100100200000200100100000100100200000101010,
1011202110112010,
1111101010101011,
2010202110112021,
1011202110112021,
1011202110112021,
100000100100200000100000100000100000100100101010,
#GOGOSTART
20110200,
10002121,
2001,
0000100010002011,
2000201000000011,
20210101,
10000002,
0000000000011010,
2011102010201111,
200100100111100200200200,
200000100100200000200000100000101010100000101010,
100000100100200000100000200000100000200000101010,
2010202011101022,
200000100000200000200000100000200100100000101010,
#SCROLL 1.25
4
#SCROLL 1
1
#SCROLL 1.25
4
#SCROLL 1
1
#SCROLL 1.25
4
#SCROLL 1
1
#SCROLL 1.25
44,
4
#SCROLL 1
1
#SCROLL 1.25
444
#SCROLL 1
1
#SCROLL 1.25
4
#SCROLL 1
1,
1110112012202220,
2210211011101010,
#GOGOEND
100111200100111200100111,
200100111200222222
#SCROLL 5.888
400
#SCROLL 1
100,
100111200100111200100111,
200100111200222222
#SCROLL 5.888
400
#SCROLL 1
100,
#GOGOSTART
2010100020101011,
2010100020111010,
21102111,
2010221120102011,
#GOGOEND
200111200200112200100111,
200200112200222222
#SCROLL 5.888
400
#SCROLL 1
100,
200111200200112200100111,
200200112200222222
#SCROLL 5.888
400
#SCROLL 1
100,
#GOGOSTART
21212121,
2010201020102011,
21212121,
2010201120112110,
#GOGOEND
7,
,
0008,
#SCROLL 2
4444,
#SCROLL 1.5
2211201122101111,
#SCROLL 1
4004004004004000,
#SCROLL 0.5
4,
#MEASURE 1/16
#SCROLL 10
4,
#SCROLL 8
,
#SCROLL 6.3
,
#SCROLL 4.9
,
#SCROLL 3.7
#MEASURE 1/8000
,
#MEASURE 499/8000
#SCROLL 2
#BARLINEOFF
1,
#BARLINEON
#MEASURE 1/16
#SCROLL 2.8
,
#SCROLL 2.1
,
#SCROLL 1.7
,
#SCROLL 1.5
2,
#SCROLL 1.4
,
#SCROLL 1.3
,
#SCROLL 1.2
,
#SCROLL 1.1
2,
#SCROLL 1.05
,
#SCROLL 1.025
,
#SCROLL 1
,
#MEASURE 4/4
#GOGOSTART
2012021021121011,
2012021021121011,
2012012012212110,
100000100100200000100000200000100100200000101010,
2012021021121011,
2012021021121011,
200000101010200000101020200000200000101010100100,
200000100100200000100000200000100100200000101010,
2012021021121011,
2012021021121011,
200000101010200000101020200000200000101010100100,
200000100100200000100000200000100100200000101010,
2012021021121011,
200000100200000200100000200100100200100000101010,
#SCROLL 1.25
4
#SCROLL 1
1
#SCROLL 1.25
4
#SCROLL 1
1
#SCROLL 1.25
4
#SCROLL 1
1
#SCROLL 1.25
44,
40
#SCROLL 1
10
#SCROLL 1.25
444440
#SCROLL 1
10
#SCROLL 1.25
40
#SCROLL 1
10,
#GOGOEND
#SCROLL 0.75
200000200200000200200000200200202020200000200200,
#SCROLL 1
#GOGOSTART
2012021021121011,
2012012010212120,
100000100100200000100000200000100100200000101010,
2012021021121011,
2012021021121011,
200000101010200000101020200000200000101010100100,
200000100100200000100000200000100100200000101010,
2012221021122011,
2012221021122011,
200000101010200000101020200000200000101010100100,
200000100100200000100000200000100100200000101010,
2012221021122011,
200000100200200200100000200100100200200000101010,
#SCROLL 1.25
4
#SCROLL 1
1
#SCROLL 1.25
4
#SCROLL 1
1
#SCROLL 1.25
4
#SCROLL 1
1
#SCROLL 1.25
44,
400000
#SCROLL 1
100000
#SCROLL 1.25
400400400400400000
#SCROLL 1
100000
#SCROLL 1.25
400000
#SCROLL 1
101010,
#GOGOEND
2000001111111011,
100000100100000100100000100100100100100000101010,
2000001111111011,
100000100100000100101010200000002000000020000000,
200000000000101010200200200100100100100000100100,
100000100100000100100000100100100100100000101010,
11101010,
100000100000100000
#SCROLL 5.888
400
#SCROLL 1
111,
#GOGOSTART
2000
#SCROLL 1.85
40
#SCROLL 1
111111
#SCROLL 1.85
40
#SCROLL 1
11,
100000100100
#SCROLL 1.85
400
#SCROLL 1
100100000100100100100
#SCROLL 1.85
400000
#SCROLL 1
101010,
2000
#SCROLL 1.85
40
#SCROLL 1
111111
#SCROLL 1.85
40
#SCROLL 1
11,
100000100100
#SCROLL 1.85
400
#SCROLL 1
100101010200000002000
#SCROLL 1.85
4000
#SCROLL 1
20000000,
200000000000
#SCROLL 1.85
40
#SCROLL 1
1010200200200100100100
#SCROLL 1.85
400000
#SCROLL 1
100100,
100000100100
#SCROLL 1.85
400
#SCROLL 1
100100000100100100100
#SCROLL 1.85
400000
#SCROLL 1
101010,
100000100100
#SCROLL 1.85
400000
#SCROLL 1
100000100100101010100100101010,
100010001000100000100000100010001000100000100000100000100000100000100000100100100100100010001000,
#GOGOEND
2,
,
#END
