// ===== Made using 0AuBSQ's Dan Chart Maker =====
TITLE:達人
BPM:165
WAVE:1.ogg
DEMOSTART:27.63
SCOREMODE:2

COURSE:Dan
LEVEL:12
BPM:165
BALLOON:1,2,75,15,1
EXAM1:g,100,100,m
EXAM2:jg,17,1,l
EXAM3:jb,6,1,l
DANTICK:5
DANTICKCOLOR:#ff005e
#START
#NEXTSONG Memory,Taichenko,,1.ogg,350,80,11,4,true
#BPMCHANGE 165
#MEASURE 4/4
#SCROLL 1.0
#BARLINEON
#DELAY 2.9
EXAM4:r,0,0,m
#MEASURE 4/4
#SCROLL 0.750000
1021,
0021200012100010,
21110111,
21112211,
21112010,
2121,
22112010,
2121,
#SCROLL 0.780000
200000100100
#SCROLL 0.810000
200000200200
#SCROLL 0.840000
100100202020
#SCROLL 0.870000
100100100100,
#SCROLL 0.900000
200000202020
#SCROLL 0.930000
100100202020
#SCROLL 0.960000
100100200200
#SCROLL 0.990000
100200100200,
#SCROLL 1.020000
100000200200
#SCROLL 1.050000
100100202020
#SCROLL 1.080000
100100200100
#SCROLL 1.110000
200100200000,
#SCROLL 1.140000
100000200100
#SCROLL 1.170000
200000201010
#SCROLL 1.210000
200000202020
#SCROLL 1.240000
100100202020,
#SCROLL 1.270000
1010101120101010,
0021201040104030,
20201110202011102020102020222010,
20201110202011102020102020222010,
#SCROLL 2.000000
200010001000200010001000200000000000200020002000100000000000200020002000100100100100100000100000,
#SCROLL 0.750000
2011011000111010,
1011011000101010,
2011011000111010,
1011011000111010,
2011011000111010,
1011011000111010,
2011011000101010,
100111100100000100
#SCROLL 10.000000
400000,
#SCROLL 1.000000
200000100100200100100100100000101010200000100100,
1011211010212110,
200000100100200100100100100000101010200000100000,
100000101010200100100000100100100000200000100000,
200000100100200100100100100000101010200000100000,
100000100100200100100000100100101010200000100200,
200000202020200000200200200000200000200000101010,
200000101010200000101010200000101010200200200200,
1001101000112211,
2001101020102010,
2012101010102011,
0210220120212121,
2001101020102011,
200100200100200000100000200000101010100000100000,
200100100100200100100100200100202020100200200200,
1222111221222222,
1001101000112211,
20001110100011002220100020001010,
20001020100010001000100020001110,
00211000212000112000201020102010,
20001110100010002220100020001010,
200000100000200000100000200000000000100000100100200000000000100010001000200000100000100000100000,
200100100100200100100100200100202020100200100100,
#SCROLL 1.050000
20111010201110102011101020111010,
#SCROLL 1.000000
20002020200020002220200020202020,
20002000200020202220200020202000,
20002000200020202220200020202020,
20002000202020202220200020002020,
20002000200020202220200022202000,
2020202222202022,
20002000200020202220200020202020,
20002000200020202220200020002020,
1022202112202121,
2020202212201111,
2020202212201111,
20002000102010201110201110201110,
2010101212201222,
1020102212201022,
20102010201020202220201020102010,
20102010201020202220201020102020,
0,
#SCROLL 2.000000
201010201010200000202020100000202020100100100100,
#SCROLL 1.000000
#GOGOSTART
200000101010100100200100200000101010100100200100,
200000100000100000200000100000100200100000100000200000000000200010001000200000000000200020002000,
10002020100010102000111020101010,
20201110202011201010222010102210,
200000101010100100200100200000101010200000202010,
200111200221200211200222,
100000000000200000200000100000000000100000100000200020002000100100100000200000100000100000100000,
#SCROLL 1.500000
#GOGOEND
3000300030303333,
#SCROLL 1.000000
#GOGOSTART
200000101010100100200100200000101010100100200100,
200000100000100000200000100000100200100000100000200000000000200010001000200000000000200020002000,
10002020100010102000111020101010,
20201110202011201010222010102210,
200000101010100100200100200000101010200000202010,
200111200221200211200222,
100000000000200000200000100000000000100000100000200020002000100100100000200000100000100000100000,
#SCROLL 1.500000
#GOGOEND
3000300030303333,
#SCROLL 1.000000
#GOGOSTART
2112211222121212,
11101011101011101010102020201020,
100100100200200100201010200100201010200200100100,
20201110202011201010222010102210,
2112211222121212,
22201022201022202020201010201020,
100100100200200100201010200100201010200200100100,
#SCROLL 0.750000
#GOGOEND
2102102111212122,
#SCROLL 1.000000
#GOGOSTART
2112211222121212,
11101011101011101010102020201020,
100100100200200100201010200100201010200200100100,
20201110202011201010222010102210,
2112211222121212,
22201022201022202020201010201020,
100100100200200100201010200100201010200200100100,
#SCROLL 0.750000
#GOGOEND
2102102101112211,
2000202002202020,
0220202020002002,
2000202002002020,
000200200000200000200000200000000000200000101010,
2011202102202102,
0220202021102012,
2011202102112002,
000200200100200000200000200000100100200000101010,
#SCROLL 1.500000
4,
,
#NEXTSONG Scarlet Mirage,DashyDesu,,2.ogg,350,80,11,3,true
#BPMCHANGE 308
#MEASURE 4/4
#SCROLL 1.0
#BARLINEON
#DELAY 0.027
EXAM4:r,0,0,m
#BPMCHANGE 308
#SCROLL 0.75
200202200202,
200202200202,
200202200202,
200202200202,
200202200202,
200202200202,
200202200202,
200202111202,
21121121,
2010102010102011,
21121121,
2010102010111010,
21121121,
2010102010102011,
21121121,
200100100200100102200100,
200202200202,
200202200202,
200202200202,
200202200202,
200202200202,
200202200202,
200202200202,
200202111202,
21121121,
2010102010102011,
21121121,
2010102010111010,
21121121,
2010102010102011,
21121121,
200100100200100100101010,
#GOGOSTART
101201101202,
101201111201,
102102100222,
122102101222,
101201101202,
101201111202,
122122122122,
111222112112,
101201101202,
101201111201,
102102100222,
122102101222,
101201101202,
101201111202,
122101122121,
111222112112,
#GOGOEND
1122,
1211,
1122,
1122,
2112,
2112,
1122,
100100101101,
100202100202,
101200100200,
100202100202,
101200101200,
100202100202,
101200101222,
100102202202,
100000001000200000002000100100100100100010001000,
#GOGOSTART
100201101202,
101201001200,
100202101201,
101201102200,
100201101201,
101202111200,
302203002300,
101202122112,
100201101202,
101201101200,
100202101201,
101201102202,
100201101201,
100000001000200100002000100010001000200000002000,
201102201102,
122122112112,
100201101202,
101201001200,
100202101201,
101201102200,
100201101201,
101202111222,
102202102202,
102122121102,
#GOGOEND
1222,
100200200202,
1222,
100200202202,
1222,
101101101101,
#GOGOSTART
102201202102,
2012021
#SCROLL 0.70833333333
1
#SCROLL 0.66666666667
1
#SCROLL 0.625
1
#SCROLL 0.58333333333
1
#SCROLL 0.54166666667
1,
#GOGOEND
#MEASURE 8/4
#SCROLL 0.5
10
#SCROLL 0.49
1
#SCROLL 0.48
200
#SCROLL 0.47
100
#SCROLL 0.46
200
#SCROLL 0.45
10
#SCROLL 0.44
1
#SCROLL 0.43
200
#SCROLL 0.42
100
#SCROLL 0.41
20
#SCROLL 0.42
1,
#SCROLL 0.43
10
#SCROLL 0.44
1
#SCROLL 0.45
200
#SCROLL 0.46
100
#SCROLL 0.47
200
#SCROLL 0.48
10
#SCROLL 0.49
1
#SCROLL 0.48
20
#SCROLL 0.47
1
#SCROLL 0.46
10
#SCROLL 0.45
2
#SCROLL 0.44
200,
#SCROLL 0.43
10
#SCROLL 0.42
1
#SCROLL 0.41
200
#SCROLL 0.42
100
#SCROLL 0.43
200
#SCROLL 0.44
10
#SCROLL 0.45
1
#SCROLL 0.46
200
#SCROLL 0.47
100
#SCROLL 0.48
20
#SCROLL 0.49
1,
#SCROLL 0.48
10
#SCROLL 0.47
1
#SCROLL 0.46
200
#SCROLL 0.45
100
#SCROLL 0.44
200
#SCROLL 0.43
10
#SCROLL 0.42
1
#SCROLL 0.41
20
#SCROLL 0.42
1
#SCROLL 0.43
10
#SCROLL 0.44
2
#SCROLL 0.45
20
#SCROLL 0.46
2,
#SCROLL 0.47
10
#SCROLL 0.48
1
#SCROLL 0.49
200
#SCROLL 0.48
100
#SCROLL 0.47
200
#SCROLL 0.46
10
#SCROLL 0.45
1
#SCROLL 0.44
200
#SCROLL 0.43
10
#SCROLL 0.42
2
#SCROLL 0.41
20
#SCROLL 0.42
1,
#SCROLL 0.43
10
#SCROLL 0.44
1
#SCROLL 0.45
20
#SCROLL 0.46
1
#SCROLL 0.47
100
#SCROLL 0.48
200
#SCROLL 0.49
10
#SCROLL 0.48
1
#SCROLL 0.47
20
#SCROLL 0.46
1
#SCROLL 0.45
10
#SCROLL 0.44
2
#SCROLL 0.43
20
#SCROLL 0.42
2,
#SCROLL 0.41
10
#SCROLL 0.42
1
#SCROLL 0.43
200
#SCROLL 0.44
100
#SCROLL 0.45
200
#SCROLL 0.46
10
#SCROLL 0.47
1
#SCROLL 0.48
200
#SCROLL 0.49
10
#SCROLL 0.48
1
#SCROLL 0.47
20
#SCROLL 0.46
1,
#SCROLL 0.45
10
#SCROLL 0.44
1
#SCROLL 0.43
200
#SCROLL 0.42
1
#SCROLL 0.41
1
#SCROLL 0.42
1
#SCROLL 0.43
200
#SCROLL 0.44
10
#SCROLL 0.45
1
#SCROLL 0.46
20
#SCROLL 0.47
1
#SCROLL 0.48
10
#SCROLL 0.49
2
#SCROLL 0.48
2
#SCROLL 0.47
2
#SCROLL 0.46
2,
#SCROLL 0.75
10
#SCROLL 0.74
1
#SCROLL 0.73
20
#SCROLL 0.72
1
#SCROLL 0.71
10
#SCROLL 0.7
2
#SCROLL 0.69
10
#SCROLL 0.68
2
#SCROLL 0.67
1
#SCROLL 0.66
1
#SCROLL 0.67
1
#SCROLL 0.68
20
#SCROLL 0.69
1
#SCROLL 0.7
10
#SCROLL 0.71
2
#SCROLL 0.72
10
#SCROLL 0.73
2,
#SCROLL 0.74
10
#SCROLL 0.73
1
#SCROLL 0.72
20
#SCROLL 0.71
1
#SCROLL 0.7
10
#SCROLL 0.69
2
#SCROLL 0.68
10
#SCROLL 0.67
2
#SCROLL 0.66
1
#SCROLL 0.67
1
#SCROLL 0.68
1
#SCROLL 0.69
20
#SCROLL 0.7
1
#SCROLL 0.71
10
#SCROLL 0.72
2
#SCROLL 0.73
1
#SCROLL 0.74
2
#SCROLL 0.73
2,
#SCROLL 0.72
10
#SCROLL 0.71
1
#SCROLL 0.7
20
#SCROLL 0.69
1
#SCROLL 0.68
10
#SCROLL 0.67
2
#SCROLL 0.66
10
#SCROLL 0.67
2
#SCROLL 0.68
1
#SCROLL 0.69
1
#SCROLL 0.7
1
#SCROLL 0.71
20
#SCROLL 0.72
1
#SCROLL 0.73
10
#SCROLL 0.74
2
#SCROLL 0.73
10
#SCROLL 0.72
2,
#SCROLL 0.71
10
#SCROLL 0.7
1
#SCROLL 0.69
20
#SCROLL 0.68
1
#SCROLL 0.67
10
#SCROLL 0.66
2
#SCROLL 0.67
10
#SCROLL 0.68
2
#SCROLL 0.69
1
#SCROLL 0.7
1
#SCROLL 0.71
1
#SCROLL 0.72
20
#SCROLL 0.73
1
#SCROLL 0.74
10
#SCROLL 0.73
2
#SCROLL 0.72
1
#SCROLL 0.71
2
#SCROLL 0.7
2,
#SCROLL 0.69
1
#SCROLL 0.68
1
#SCROLL 0.67
1
#SCROLL 0.66
20
#SCROLL 0.67
1
#SCROLL 0.68
10
#SCROLL 0.69
2
#SCROLL 0.7
10
#SCROLL 0.71
2
#SCROLL 0.72
1
#SCROLL 0.73
1
#SCROLL 0.74
1
#SCROLL 0.73
2
#SCROLL 0.72
2
#SCROLL 0.71
2
#SCROLL 0.7
10
#SCROLL 0.69
2
#SCROLL 0.68
10
#SCROLL 0.67
2,
#SCROLL 0.66
10
#SCROLL 0.67
1
#SCROLL 0.68
20
#SCROLL 0.69
1
#SCROLL 0.7
10
#SCROLL 0.71
2
#SCROLL 0.72
1
#SCROLL 0.73
2
#SCROLL 0.74
2
#SCROLL 0.73
1
#SCROLL 0.72
1
#SCROLL 0.71
1
#SCROLL 0.7
20
#SCROLL 0.69
1
#SCROLL 0.68
10
#SCROLL 0.67
2
#SCROLL 0.66
1
#SCROLL 0.67
2
#SCROLL 0.68
2,
#SCROLL 0.69
1
#SCROLL 0.7
1
#SCROLL 0.71
1
#SCROLL 0.72
20
#SCROLL 0.73
1
#SCROLL 0.74
10
#SCROLL 0.73
2
#SCROLL 0.72
10
#SCROLL 0.71
2
#SCROLL 0.7
1
#SCROLL 0.69
1
#SCROLL 0.68
1
#SCROLL 0.67
2
#SCROLL 0.66
2
#SCROLL 0.67
2
#SCROLL 0.68
10
#SCROLL 0.69
2
#SCROLL 0.7
10
#SCROLL 0.71
1,
#SCROLL 0.72
2000
#SCROLL 0.73
1000
#SCROLL 0.74
1000
#SCROLL 0.73
1000
#SCROLL 0.72
1000
#SCROLL 0.71
1000
#SCROLL 0.7
2000
#SCROLL 0.69
1000
#SCROLL 0.68
1000
#SCROLL 0.67
2000
#SCROLL 0.66
2000
#SCROLL 0.65
1000
#SCROLL 0.64
200
#SCROLL 0.6375
100
#SCROLL 0.635
200
#SCROLL 0.6325
100
#SCROLL 0.63
200
#SCROLL 0.6275
100
#SCROLL 0.625
100
#SCROLL 0.6225
100
#SCROLL 0.62
200
#SCROLL 0.6175
200
#SCROLL 0.615
200
#SCROLL 0.6125
200
#SCROLL 0.61
200
#SCROLL 0.6075
200
#SCROLL 0.605
200
#SCROLL 0.6025
200,
#SCROLL 0.6
#MEASURE 16/4
,
#MEASURE 4/4
00200200,
22,
1022,
12,
00200200,
20002022,
10002022,
12,
#SCROLL 0.7
1022,
2022,
1022,
2000002220002000,
#SCROLL 0.8
1022,
2022,
1022,
200000201200,
#SCROLL 1.2
211211221221,
222111221221,
#SCROLL 1
#GOGOSTART
100201101202,
100010200010000011200000,
100202101201,
101201102222,
100201101201,
101202111200,
300022200030000020300000,
101202122112,
100201101202,
100010200010100011200000,
100202101201,
100010200010100022200020,
100201101201,
101202111202,
201102201102,
102020102020101020101022,
100201211201,
201201211221,
201201221201,
201010200010201011202020,
200201211201,
201201211221,
201201221201,
200010001000200000001010200200100100200200100100,
#GOGOEND
12,
1021,
12,
100100200222,
12,
100100202202,
#GOGOSTART
100020002000100200200200,
100200200200200200200200100000004000000040000000,
#GOGOEND
,
,
,
,
,
#NEXTSONG ΣxilƎ,mrcool909090,,3.ogg,350,80,11,4,true
#BPMCHANGE 320
#MEASURE 4/4
#SCROLL 1.0
#BARLINEON
EXAM4:r,184,228,m
#SCROLL 0.75
21112121,
21112121,
21112121,
2010101022202010,
21112121,
21112121,
21112121,
2010101022202010,
#SCROLL 0.85
21112121,
2010101021102010,
21112121,
2010101022202010,
21112121,
2010101021102010,
21112121,
2010101022202010,
#SCROLL 1
21112121,
2010101021102010,
21112121,
2010101022202010,
1110100001100010,
1010101011101010,
,
2020202022202020,
11011211,
#SCROLL 1.5
4
#SCROLL 1
1103010,
11011211,
#SCROLL 1.5
40
#SCROLL 1
10201022201010,
11011211,
#SCROLL 1.5
4
#SCROLL 1
1103010,
11011211,
#SCROLL 1.5
40
#SCROLL 1
10201022112211,
11011211,
#SCROLL 1.5
4
#SCROLL 1
1103010,
11011211,
#SCROLL 1.5
40
#SCROLL 1
10201022201010,
11011211,
#SCROLL 1.5
4
#SCROLL 1
1103010,
21112121,
#SCROLL 1.5
40
#SCROLL 1
10101022112211,
11212211,
#SCROLL 1.5
4
#SCROLL 1
1104020,
11212211,
#SCROLL 1.5
40
#SCROLL 1
10201022202010,
11212211,
#SCROLL 1.5
4
#SCROLL 1
1104020,
11212212,
#SCROLL 1.5
40
#SCROLL 1
20201022112211,
11212211,
#SCROLL 1.5
4
#SCROLL 1
1104020,
11212211,
#SCROLL 1.5
40
#SCROLL 1.
10201022202010,
11212211,
#SCROLL 1.5
4
#SCROLL 1
1104020,
21112121,
#SCROLL 1.5
40
#SCROLL 1
10101022112211,
50000008,
#SCROLL 3
4000
#SCROLL 1
201022205000,
00000812,
#SCROLL 3
40
#SCROLL 1
10201012102010,
50000008,
#SCROLL 3
4000
#SCROLL 1
201022202010,
21112121,
#SCROLL 3
40
#SCROLL 1
10101022212111,
50000008,
#SCROLL 3
4000
#SCROLL 1
201022205000,
00000812,
#SCROLL 3
40
#SCROLL 1
10201012102010,
50000008,
#SCROLL 3
4000
#SCROLL 1
201022202010,
21112121,
#SCROLL 3
40
#SCROLL 1
10101022212111,
50000821,
200100222200200100500000,
00000812,
2010201012102010,
50000008,
2010201022202010,
21112121,
2010101022212111,
50000821,
21202150,
00000812,
2010201012102010,
50000008,
2010201022202010,
21112111,
20101010
#SCROLL 1.1
2
#SCROLL 1.21
2
#SCROLL 1.33
2
#SCROLL 1.47
2
#SCROLL 1.61
20
#SCROLL 1.77
10,
#SCROLL 0.5
21212121,
2020101022201010,
22211102,
0020100011102000,
21212121,
2020101022201010,
22112211,
21212122,
#SCROLL 0.75
21212121,
2020101022201010,
22211102,
1020100011102000,
2110201021102010,
200100200000100000100000101010100000100000100000,
22112211,
200000100000200000100000100200100201002010200000,
#SCROLL 1
#GOGOSTART
1111200021112000,
1111100021111000,
1111200021112000,
1111100021111000,
1111200021112000,
1111100021111000,
1111200021112000,
1111100021111000,
#GOGOEND
100200100200102010201020,
1212112211221122,
#GOGOSTART
1111200021112000,
1111100021111000,
1111200021112000,
1111100021111000,
1111200021112000,
1111100021112010,
1221105000000000,
0000008020101022,
15000008,
10212111,
21211212,
200500000800102010100000,
11221222,
12221221,
#GOGOEND
100200100200102010201020,
1212112211221122,
#GOGOSTART
22112211,
21122112,
25000008,
211211211221,
112112122122,
200010001000100010002000200100200000200010002000,
15000000,
00000008,
1111200021112000,
1111100021111000,
1111200021112000,
1111100021111000,
1111200021112000,
1111100021111000,
1010100011111000,
1010100011111000,
1100001100001100,
0000110011000000,
1111100011111000,
1111100010001000,
11111111,
1010101011111010,
#GOGOEND
#SCROLL 0.5
22111122,
22111122,
22111122,
2020101022202010,
22111122,
22111122,
22111122,
200000200000100000100000200200200000101010101010,
1
#SCROLL 2
4000000,
,
#NEXTSONG Scarlet Soul,Cusi vs 9C,,4.ogg,350,80,10,3,true
#BPMCHANGE 100
#MEASURE 4/4
#SCROLL 1.0
#BARLINEON
#DELAY -0.3
EXAM4:r,87,105,m
#SCROLL 0.5
#BARLINEOFF
01000200,
02000200,
#MEASURE 2/4
0122,
#BARLINEON
#BPMCHANGE 200
#MEASURE 4/4
#SCROLL 0.75
20010000,
0122,
1222,
0122,
12101210,
200122112121,
12,
#MEASURE 5/4
10200,
#MEASURE 2/4
#SCROLL 0.5
3,
#SCROLL 0.75
2,
#SCROLL 1
2,
#SCROLL 1.25
2,
#SCROLL 1.5
2,
#SCROLL 1.75
2,
#SCROLL 1
#MEASURE 4/4
3002002011121122,
2000222122112112,
10000000220022001100220011001100,
1022122211121122,
2000112000122000,
1000222122121211,
2000121120012022,
1210201020012112,
1002002011121122,
2000222122112112,
10000000220022001100220011001100,
1022122211121122,
1021021002112212,
2012012001221122,
2000111211121122,
1122112212221222,
#SCROLL 0.5
#BARLINEOFF
01212212,
#SCROLL 0.75
#BARLINEON
221221221211,
201010201010201020111122,
200122122112,
112121212112,
221221221211,
201010201010201020111122,
2144,
2022112112211211,
#SCROLL 1
1212201210201212,
#SCROLL 1.25
1122201210201212,
#SCROLL 1.5
1212201211221212,
#SCROLL 0.5
20012000,
#BARLINEOFF
20120201,
1,
2,
1000002220002000,
212212112122,
2,
22,
#SCROLL 0.75
#BARLINEON
1000001120000011,
1000221000200022,
1000001120201020,
10000000000000002200000022000000,
1202220210202222,
1022202010221020,
1012101012121012,
2012201222112212,
#MEASURE 2/4
#SCROLL 0.5
3,
#SCROLL 0.75
2,
#SCROLL 1
2,
#SCROLL 1.25
2,
#SCROLL 1.5
2,
#SCROLL 1.75
2,
#MEASURE 4/4
#SCROLL 2
78
#SCROLL 1
10201020201122,
#GOGOSTART
#SCROLL 1.5
40
#SCROLL 1
11
#SCROLL 1.5
40
#SCROLL 1
11
#SCROLL 1.5
4
#SCROLL 1
111
#SCROLL 1.5
40
#SCROLL 1
11,
#SCROLL 1.5
40
#SCROLL 1
11
#SCROLL 1.5
40
#SCROLL 1
11
#SCROLL 1.5
4
#SCROLL 1
111
#SCROLL 1.5
4
#SCROLL 1
111,
#SCROLL 1.5
40
#SCROLL 1
11
#SCROLL 1.5
40
#SCROLL 1
11
#SCROLL 1.5
4
#SCROLL 1
111
#SCROLL 1.5
4
#SCROLL 1
110,
#SCROLL 1.5
400
#SCROLL 1
100
#SCROLL 1.5
400
#SCROLL 1
100
#SCROLL 1.5
400
#SCROLL 1
100
#SCROLL 1.5
400
#SCROLL 1
100
#SCROLL 1.5
400
#SCROLL 1
101010100202020100000,
#SCROLL 1.5
40
#SCROLL 1
11
#SCROLL 1.5
40
#SCROLL 1
11
#SCROLL 1.5
4
#SCROLL 1
111
#SCROLL 1.5
40
#SCROLL 1
11,
#SCROLL 1.5
4
#SCROLL 1
1
#SCROLL 1.5
4
#SCROLL 1
1
#SCROLL 1.5
404
#SCROLL 1
1
#SCROLL 1.5
40
#SCROLL 1
11
#SCROLL 1.5
4
#SCROLL 1
110,
#SCROLL 1.5
40
#SCROLL 1
11
#SCROLL 1.5
40
#SCROLL 1
11
#SCROLL 1.5
4
#SCROLL 1
111
#SCROLL 1.5
4
#SCROLL 1
110,
#SCROLL 1.5
400
#SCROLL 1
100
#SCROLL 1.5
400
#SCROLL 1
100
#SCROLL 1.5
400
#SCROLL 1
100
#SCROLL 1.5
400
#SCROLL 1
100
#SCROLL 1.5
400
#SCROLL 1
101010100202020100000,
#SCROLL 2
7080
#SCROLL 1.5
40
#SCROLL 1
11
#SCROLL 1.5
4
#SCROLL 1
111
#SCROLL 1.5
40
#SCROLL 1
11,
#SCROLL 1.5
40
#SCROLL 1
11
#SCROLL 1.5
40
#SCROLL 1
11
#SCROLL 1.5
4
#SCROLL 1
111
#SCROLL 1.5
4
#SCROLL 1
111,
#SCROLL 1.5
40
#SCROLL 1
11
#SCROLL 1.5
40
#SCROLL 1
11
#SCROLL 1.5
4
#SCROLL 1
111
#SCROLL 1.5
4
#SCROLL 1
110,
#SCROLL 1.5
400
#SCROLL 1
100
#SCROLL 1.5
400
#SCROLL 1
100
#SCROLL 1.5
400
#SCROLL 1
100
#SCROLL 1.5
400
#SCROLL 1
100
#SCROLL 1.5
400
#SCROLL 1
101010100202020100000,
#SCROLL 1.5
40
#SCROLL 1
11
#SCROLL 1.5
40
#SCROLL 1
11
#SCROLL 1.5
4
#SCROLL 1
111
#SCROLL 1.5
40
#SCROLL 1
11,
#SCROLL 1.5
4
#SCROLL 1
1
#SCROLL 1.5
4
#SCROLL 1
1
#SCROLL 1.5
404
#SCROLL 1
1
#SCROLL 1.5
40
#SCROLL 1
11
#SCROLL 1.5
4
#SCROLL 1
110,
#SCROLL 1.5
40
#SCROLL 1
11
#SCROLL 1.5
40
#SCROLL 1
11
#SCROLL 1.5
4
#SCROLL 1
111
#SCROLL 1.5
4
#SCROLL 1
110,
#SCROLL 1.5
400
#SCROLL 1
100
#SCROLL 1.5
400
#SCROLL 1
100
#SCROLL 1.5
400
#SCROLL 1
100
#SCROLL 1.5
400
#SCROLL 1
100
#SCROLL 1.5
400
#SCROLL 1
101010100202020100000,
100000000000100100100000100000001000100000000000
#SCROLL 4
500000000000000000000000000000000000800000000000,
#SCROLL 1
100000000000100100100000100000001000100000000000
#SCROLL 4
500000000000000000000000000000000000800000000000,
#SCROLL 1
100000000000100100100000100000001000100000000000
#SCROLL 4
500000000000000000000000000000000000800000000000,
#SCROLL 1
100000000000100100100000100000001000100000000000200000000000200200200000200000002000200000200000,
#MEASURE 2/4
#BARLINEON
#SCROLL 1.5
40040040,
#BARLINEOFF
#SCROLL 1
1111111111,
#BARLINEON
#SCROLL 1.5
40040040,
#BARLINEOFF
#SCROLL 1
111111111111,
#BARLINEON
#SCROLL 1.5
40040040,
#BARLINEOFF
#SCROLL 1
11111111111111,
#BARLINEON
#MEASURE 4/4
#SCROLL 1.5
4004004030030
#SCROLL 1
212,
10210
#SCROLL 1.25
21210210
#SCROLL 1.5
212,
10210
#SCROLL 1.75
21210210
#SCROLL 2
212,
2121212121212121,
2
#SCROLL 2.1
2
#SCROLL 2.2
2
#SCROLL 2.3
2
#SCROLL 2.4
2
#SCROLL 2.5
2
#SCROLL 2.6
2
#SCROLL 2.7
2
#SCROLL 2.8
2
#SCROLL 2.9
2
#SCROLL 3
2
#SCROLL 3.2
2
#SCROLL 3.4
2
#SCROLL 3.6
2
#SCROLL 3.8
2
#SCROLL 4
2,
#GOGOEND
#SCROLL 8
7,
#SCROLL 4
,
#SCROLL 2
,
#SCROLL 1
8010201020101122,
#GOGOSTART
#SCROLL 1.133
1011201202112212,
1012201202112212,
1021201202122212,
2212212112112212,
121112200000122112200000,
222010221020111020121020,
202020100100200200100200102020100100200200100200,
200200000000100100000000200200000000100100000000200100000000100200000000100010001000200020002000,
2021201202111212,
2012201202112212,
2022201202122212,
200000200100200000100200000200100100200010002000,
200000200100200200100200000200100100202020100200,
200000100200200200100200000200100100202020100000,
200000100100200200100200000200100100202020100200,
200000000100100000000200200000000100100000000200200000000100100000000000100010002000200000000000,
#GOGOEND
#SCROLL 1.5
111010101010200000111010,
101010200000111010201010,
111010101010200000111010,
101010200000111010201010,
#SCROLL 1.75
112020201010200000112020,
201010200000112010201010,
112020201010200000112020,
201010200000112010201010,
#SCROLL 2
#GOGOSTART
122020202010200000122020,
202010200000122010201020,
122020202010200000122020,
202010200000122010201020,
#SCROLL 2.5
344334400344,
334400334434,
343334400343,
334400334434,
#GOGOEND
#SCROLL 1
3,
,
,
,
#NEXTSONG Emily,H5,,5.ogg,350,80,12,4,true
#BPMCHANGE 310
#MEASURE 4/4
#SCROLL 1.0
#BARLINEON
EXAM4:r,171,223,m
#SCROLL 0.5
#MEASURE 8/4
3211,
2112,
1000121220002010,
2000122120001000,
3211,
2122,
1000112220002010,
2000122120002000,
#SCROLL 0.75
3121212122121212,
1121212122121212,
1011212212121122,
2222,
3121212122121212,
1121212122121212,
102112112112122122122122,
#SCROLL 1
300000
#SCROLL 0.75
1120201020,
#SCROLL 1
#MEASURE 4/4
30110110,
11012010,
10110110,
11012130,
30110110,
21012210,
20210210,
100000100000100100101010100000100000100000100000,
4000112000112000,
1120001120205080,
4000101120101011,
2010111020205080,
4010112020112010,
2011102021205080,
2112112112112112,
1212121211111111,
#SCROLL 0.5
7,
#BARLINEOFF
,
80000000
#SCROLL 0.52
1
#SCROLL 0.54
1
#SCROLL 0.56
1
#SCROLL 0.58
1
#SCROLL 0.6
1
#SCROLL 0.62
1
#SCROLL 0.64
1
#SCROLL 0.66
1,
#SCROLL 0.68
1
#SCROLL 0.7
1
#SCROLL 0.72
1
#SCROLL 0.74
1
#SCROLL 0.76
1
#SCROLL 0.78
1
#SCROLL 0.8
1
#SCROLL 0.82
1
#SCROLL 0.84
1
#SCROLL 0.86
1
#SCROLL 0.88
1
#SCROLL 0.9
1
#SCROLL 0.92
1
#SCROLL 0.94
1
#SCROLL 0.96
1
#SCROLL 0.98
1,
#SCROLL 1
#BARLINEON
#GOGOSTART
4000101010101011,
1010101010101011,
1111111110101010,
100100100000100100100000101010100000100000101010,
2000100010101011,
1010101122111011,
2011104011104010,
200100100200100100200100100200200200202020200200,
1000101010101011,
1010101010101011,
1111111110101010,
100100100000100100100000101010100000100000101010,
2010101120102010,
100100100100100000100100100100100000101010100000,
40114014,
000000100100100000100000100100100100101010100000,
4000101010101011,
1010101010101011,
1111111110101010,
100100100000100100100000101010100000100000101010,
2000100010101011,
1010101122111011,
2011104011104010,
200100100200100100200100100200200200202020200200,
1000101010101011,
1010101010101011,
1111111110101010,
100100100000100100100000101010100000100000101010,
2010101120102010,
100100100100100000100100100100100000101010100000,
40114014,
000000100100100000100000100100100100101010100100,
#GOGOEND
#BPMCHANGE 155
#MEASURE 4/4
#SCROLL 0.5
10000000
#SCROLL 2
4000
#SCROLL 0.5
2222,
200200100200200200101010
#SCROLL 2
400000000000
#SCROLL 0.5
202020200000,
1000000022001000
#SCROLL 2
40000000
#SCROLL 0.5
21002000,
200200000000100000000000200000000000100000100000
#SCROLL 2
400000000000
#SCROLL 0.5
100000000000202000100000100000200000,
1000000022001010
#SCROLL 2
40000000
#SCROLL 0.5
22001000,
200200000000100000000000200000000000100000100000
#SCROLL 2
400000000000
#SCROLL 0.5
202000000000202000000000202000000000,
200200000000000000000000200000000000100000100000
#SCROLL 2
400000000000000000000000
#SCROLL 0.5
202000100000100000200000,
#SCROLL 1.75
20102010101120102000101020101000,
#BPMCHANGE 310
#MEASURE 8/4
#SCROLL 0.5
10000010
#SCROLL 1
4000
#SCROLL 0.75
2222,
1110101011101010
#SCROLL 1
4000
#SCROLL 0.5
100020000000,
11
#SCROLL 1
4
#SCROLL 0.5
1,
20001010
#SCROLL 1
40
#SCROLL 0.5
112010,
1001
#SCROLL 1
40
#SCROLL 0.5
10,
10112010
#SCROLL 1
40
#SCROLL 0.5
102112,
10001000
#SCROLL 1
4000
#SCROLL 0.5
2112,
#SCROLL 1
100000100100200000100000200010001000200010001000200000000000100010001000200000000000100000000000,
#SCROLL 8
#MEASURE 4/4
6,
#BARLINEOFF
,
,
0008,
#SCROLL 0.5
2,
,
78000000
#SCROLL 0.52
1
#SCROLL 0.54
1
#SCROLL 0.56
1
#SCROLL 0.58
1
#SCROLL 0.6
1
#SCROLL 0.62
1
#SCROLL 0.64
1
#SCROLL 0.66
1,
#SCROLL 0.68
1
#SCROLL 0.7
1
#SCROLL 0.72
1
#SCROLL 0.74
1
#SCROLL 0.76
1
#SCROLL 0.78
1
#SCROLL 0.8
1
#SCROLL 0.82
1
#SCROLL 0.84
1
#SCROLL 0.86
1
#SCROLL 0.88
1
#SCROLL 0.9
1
#SCROLL 0.92
1
#SCROLL 0.94
1
#SCROLL 0.96
1
#SCROLL 0.98
1,
#BARLINEON
#SCROLL 1
#GOGOSTART
20120110,
2010111120102010,
20120110,
2010111120101220,
4000102000121010,
4000102000121020,
300000000222,
33,
4000101021212010,
2010112220102212,
100000100100120120100200,
100000100000101010200000200000100000200200100200,
2011104000102110,
4011104000112010,
211211211211,
2011112021111120,
#GOGOEND
30120110,
20112141,
#GOGOSTART
40120110,
2010111120102220,
4000102000111020,
4000102000121020,
406000000000000000000800406000000000000000000800,
406000000000000000000800406000000000000000000800,
4000101022222210,
200000100000201000201000200200100100200000100000,
20112111,
20102211,
2010102021212020,
200000100000101000101000200100200100200000200000,
20112111,
20102211,
2000101022222210,
200000100000201000201000200200100100200000100000,
4000111040101110,
4011101040111110,
4010112112112111,
2211221121112111,
1122111212221212,
2121212121212121,
#GOGOEND
#SCROLL 8
6,
,
,
0008,
#MEASURE 8/4
#SCROLL 0.5
3211,
2112,
1011211221122212,
#SCROLL 1
100000200000100000200000100020001000200010002000100200100200100200100200102010201020500000800000,
3,
,
#END
