// ===== Made using 0AuBSQ's Dan Chart Maker =====
TITLE:例2
BPM:128
WAVE:Fearless.ogg
DEMOSTART:46.875
SCOREMODE:2

COURSE:Dan
LEVEL:10
BPM:128
BALLOON:75,55,3,7,13,13,13,30,3,889
EXAM1:g,96,100,m
EXAM2:jb,53,27,l
EXAM3:a,91,96,m
DANTICK:5
DANTICKCOLOR:#0022ff
#START
#NEXTSONG Fearless,Ash Electric,,Fearless.ogg,350,80,7,3
#BPMCHANGE 128
#MEASURE 4/4
#SCROLL 1.0
#BARLINEON
EXAM4:r,0,0,m
EXAM5:jb,4,2,l
#MEASURE 4/4
0,
2120101020020010,
2001021020010210,
2120101020020010,
2001021020010210,
2120101020020010,
2001021020010210,
2120101020020010,
2001021020010210,
1120101020001010,
1210101012102020,
1120101020001010,
1210101022202010,
1120101020001010,
1210101012102020,
1120101020001010,
1210101022202011,
1000100010001011,
2000100010001011,
2000200020002022,
2000200020002022,
1011101110111011,
2011101110111011,
2011201220222022,
2022202221202020,
#GOGOSTART
1110101020001020,
1210102012102010,
1110101020001020,
1210102012202010,
1110101020001020,
1210102012102010,
1110101020001020,
1210102012201020,
1012101011102020,
1210101012102020,
1012101011102020,
1210101012202020,
1012101011102020,
1210101012102020,
1012101011102020,
1210101012202020,
#GOGOEND
2120101120020011,
2001021020010210,
2120101120020011,
2001021020010210,
2120101120020011,
2001021020010210,
2120101120020011,
2001021020010210,
#GOGOSTART
2120101120222011,
2011221020112210,
2120101120222011,
2011221020112210,
2120101120222011,
2011221020112210,
2120101120222011,
2011221020112210,
#GOGOEND
20020020,
20020020,
20020020,
20020020,
20020020,
20020020,
20020020,
20020020,
,
#NEXTSONG 650 HP,Akako Hinami,,650 HP.ogg,350,80,8,3
#BPMCHANGE 160
#MEASURE 4/4
#SCROLL 1.0
#BARLINEON
#DELAY 1.505
EXAM4:r,6,8,m
EXAM5:jb,6,3,l 3,
22,
1,
22,
1,
22,
1,
3000300030002222,
1022102011201020,
1022102011201010,
1022102011201020,
1022102011203000,
1022102011201020,
1022102011201010,
31111111,
1101010022020200,
#GOGOSTART
1011001022102010,
1022001021102120,
1011001022102010,
#GOGOEND
1
#GOGOSTART
4
#GOGOEND
1
#GOGOSTART
4
#GOGOEND
1
#GOGOSTART
4
#GOGOEND
1
#GOGOSTART
4,
1011001022102010,
1022001021102120,
1011001022102010,
1121102012102222,
1021001022102010,
1021001021101222,
1021001022102010,
#GOGOEND
1121101022122020,
#GOGOSTART
1021001022102010,
1021001021102122,
1021001022102010,
1021102111201021,
#GOGOEND
#BPMCHANGE 320
#MEASURE 8/4
#SCROLL 0.5
1010220101201020,
1010220101221020,
1010220101201020,
10
#GOGOSTART
21
#GOGOEND
10
#GOGOSTART
21
#GOGOEND
10
#GOGOSTART
21
#GOGOEND
10
#GOGOSTART
21,
#GOGOEND
1010220101201020,
1010220101221020,
1010220101201020,
1110110210221020,
#SCROLL 0.6
1010220101201020,
1010220101221210,
1010220101201020,
10
#GOGOSTART
21
#GOGOEND
10
#GOGOSTART
21
#GOGOEND
10
#GOGOSTART
21
#GOGOEND
10
#GOGOSTART
21,
#GOGOEND
1010220101201020,
1010220101221210,
1010220101201020,
1110210210221020,
#BPMCHANGE 160
#MEASURE 4/4
#SCROLL 1
3,
,
,
,
12,
1,
12,
5000008011010010,
1021102012201120,
1022102011201121,
1021102012201120,
1122102011211000,
1021102012201120,
1022102011201121,
11111111,
1101012022020210,
#GOGOSTART
1011021022102010,
1012021022102210,
1012021022102010,
#GOGOEND
11
#GOGOSTART
21
#GOGOEND
10
#GOGOSTART
20
#GOGOEND
11
#GOGOSTART
21
#GOGOEND
10
#GOGOSTART
20,
1011021022102010,
1012021022102210,
1012021022102010,
1121102011021022,
1011021022102010,
1012021022101222,
1012021022102010,
#GOGOEND
1121101022122020,
#GOGOSTART
1011021022102010,
1012021022102212,
1012021022102010,
1022102211201121,
#GOGOEND
#BPMCHANGE 320
#MEASURE 8/4
#SCROLL 0.5
1010220101201120,
1010220101221020,
1010220101201120,
10
#GOGOSTART
21
#GOGOEND
10
#GOGOSTART
21
#GOGOEND
10
#GOGOSTART
21
#GOGOEND
10
#GOGOSTART
21,
#GOGOEND
1010220101201120,
1010220101221020,
1010220101201120,
1101100110221020,
#BPMCHANGE 160
#MEASURE 4/4
#SCROLL 1
3,
,
,
,
#NEXTSONG Katharsis,9C,,khatarsis.ogg,350,80,8,3
#BPMCHANGE 100
#MEASURE 4/4
#SCROLL 1.0
#BARLINEON
EXAM4:r,150,235,m
EXAM5:jb,7,4,l
#MEASURE 4/4
#SCROLL 0.7
7,
00000008,
2210400022104000,
1210400012104000,
1110400011104000,
1120400011204000,
1210401012104000,
1210401012104000,
1120401011204000,
1210401012104000,
1122112211221122,
1122112211221122,
2112211221122112,
1112111211121112,
1122112211221122,
1122112211221122,
2112211221122112,
1112111211121112,
2110211021102110,
2110211021102110,
2111211121112111,
2111211121112111,
10104010101040
#SCROLL 4
58,
#SCROLL 0.7
12104010101040
#SCROLL 4
58,
#SCROLL 0.7
12104012121040
#SCROLL 4
58,
#SCROLL 0.7
101010200000400000100200100200100000400000
#SCROLL 4
500800,
#SCROLL 0.7
1210401012104010,
111200400100111200400100,
4011401140114011,
4141414141414140,
7,
0008
#SCROLL 0.1
5008,
#SCROLL 8
#GOGOSTART
50008000
#SCROLL 1
111110001020000011111000,
10200000111110001020000011111020,
#SCROLL 8
50000080
#SCROLL 1
111110001020000011111000,
10200000111110001020000011111000,
20001110100022201020000011111000,
10200000111110001020000011111020,
#SCROLL 8
50000080
#SCROLL 1
111110001020000011111000,
10200000111110001020000011111020,
#SCROLL 8
50000080
#SCROLL 1
201010001111202020101000,
11112020201010001111202020101000,
#SCROLL 8
50000080
#SCROLL 1
201010201000111120101020,
10001111201010201000111120101020,
#SCROLL 8
580580580580580580580000
#SCROLL 1
200000100000100000000000100100100100200000200000200000100000100000000000,
11112020201010001111202020101000,
#SCROLL 8
50000080
#SCROLL 1
201010201000111120101020,
10001111201010201000111120101020,
#GOGOEND
#SCROLL 10
#BARLINEOFF
5,
0,
8,
,
#NEXTSONG Welcome To The Cafe,Sukima Altera feat. ALTERNATiVE THEORY,,WelcomeToTheCafe.ogg,350,80,9,3
#BPMCHANGE 150.00
#MEASURE 4/4
#SCROLL 1.0
#BARLINEON
EXAM4:r,0,0,m
EXAM5:jb,12,6,l
#MEASURE 4/4
1020020010010010,
0010010020010011,
1020020010010011,
0010011120210211,
1020120010011010,
1010110020011011,
1020120010011011,
2111211122112211,
#GOGOSTART
2010120210112010,
2010120120211022,
2010120210112010,
2010111120210210,
2010120210112010,
2010120120211022,
2011012011012010,
2102120120210210,
2010120210112021,
1010120120201112,
2010120210112020,
1010201120210210,
2010120210112010,
2010120120211011,
2011012011012010,
2111211121112212,
#GOGOEND
#BPMCHANGE 140.000000
1020120010011010,
1010110020011011,
#BPMCHANGE 130.000000
1020120010011010,
2111211122112211,
#BPMCHANGE 120.000000
2,
1000000000100100,
2000000000011010,
2000001110010100,
2,
1000000000100100,
2000000000011010,
2000001110000000,
2022022020202020,
1011011010101120,
2022022020222020,
1001010110010100,
2022022020202020,
1011011010101120,
2022022020222020,
1011112110111121,
#GOGOSTART
2022022020112020,
1011012010112120,
2022022020121020,
1021012010112110,
2012012020202020,
1021012010102120,
2022122020222120,
1011111010111110,
2022022020112020,
1011012010112120,
1122221122112211,
2121212111212110,
2012012020202020,
1021012010102120,
2022122020222120,
1010101011111111,
#GOGOEND
#BPMCHANGE 130.000000
2,
1,
2,
21,
#BPMCHANGE 140.000000
2,
1,
2,
2111211122112211,
#BPMCHANGE 150.000000
1020220010012010,
0010210020012011,
1020220010012011,
0010211120212211,
1020220010012010,
0010210020012011,
1020220010012011,
0202210120212011,
2010120210110010,
2010120120210022,
2010120210110010,
2010111120210210,
2010120210110010,
2010120120210022,
2011012011012010,
2102120120210210,
2010120210110020,
1010120120210022,
2010120210110020,
1010111120210210,
2010120210110010,
2010120120210011,
2011012011012010,
11111111,
100000100000100000100000100000100000100000100000100000100000100000100000100000001000000010000000,
#GOGOSTART
2010120210112010,
2010120120211022,
2010120210112010,
2010111120210210,
2010120210112010,
2010120120211022,
2011012011012010,
2102120120210210,
2022202020222020,
1011101010101120,
2220202021222020,
1221101021211210,
2022202020102020,
1021101010202120,
2022201020222120,
2111211121112212,
#GOGOEND
1020120010011010,
1010110020011011,
1020120010011011,
1010111120210211,
1020120010011010,
1010110020011011,
1020120010011011,
1211010120210210,
1020220010012010,
0010210020012011,
1020220010012011,
0010211120212211,
1020220010012010,
0010210020012011,
1020220010012011,
2111211122112211,
,
#NEXTSONG Dear Stars,DashyDesu,,stars.ogg,350,80,9,4
#BPMCHANGE 82
#MEASURE 4/4
#SCROLL 1.0
#BARLINEON
#DELAY 0.028
EXAM4:r,100,130,m
EXAM5:jb,14,7,l 0
#BPMCHANGE 82
122,
11202010,
100000102020101020100200,
1010200010020020,
1022102010001011,
1010202000102011,
1000202210202222,
10211020,
1011,
10220200,
5,
08,
#BPMCHANGE 164.002
2011201121112110,
1011201010112000,
1010201112102000,
1011201010112020,
1111201000112011,
1000201010112022,
1000201000102022,
1011202220112030,
0020303000221111,
1000201110112010,
2011201112102022,
10140414,
0030301110201020,
1011202210112010,
0010201022112011,
1011202011121020,
1011201120221110,
#GOGOSTART
1002102210201120,
1102102012221020,
1021121010221210,
1022201110221111,
1022102211201120,
1120120212221120,
1110201110221110,
2111211122112211,
1021021012221020,
1021021011221020,
1021021012210210,
1020102211221210,
1001201110222210,
1201201211201110,
1011212021204000,
3000202212012210,
#GOGOEND
#BPMCHANGE 82
1011202210112000,
1012021070000080,
#BPMCHANGE 164.002
5000802212221122,
1021027000008010,
2112112021121120,
2021012210102020,
500000000000800000102000000000100000200200100000,
1122201110221010,
1021202210212022,
1102211012221220,
7000000000008022,
10001000200012000000200020201000,
2011202211201120,
1022101022102211,
7008,
7008,
1022102210221010,
2111112111112111,
#GOGOSTART
1011201121012210,
1101221012020110,
1112122011121220,
1022101110212211,
1011201121012210,
1101221012020110,
1112122011121220,
1022101110212211,
2011201121112011,
200200100100200010001000200020001000200000100100,
2011221120122120,
2211201120212210,
1012122011221220,
1102112012221220,
1111222211112222,
1122112212121122,
#GOGOEND
#BPMCHANGE 88
0,
1011201011201020,
100200201020102020100200,
1010200010120020,
1022100010112000,
1110202011201022,
1010201010201122,
1110,
2000200
#BPMCHANGE 82
0,
#BPMCHANGE 76
1010
#BPMCHANGE 70
2020
#BPMCHANGE 64
1020
#BPMCHANGE 57.99999999999999
2020
#BPMCHANGE 53
1020
#BPMCHANGE 47
0000
#BPMCHANGE 41
0000
#BPMCHANGE 35
000
#BPMCHANGE 65
0,
#BPMCHANGE 24
31
#BPMCHANGE 33
21
#BPMCHANGE 43
12
#BPMCHANGE 53
21
#BPMCHANGE 63
21
#BPMCHANGE 73
12
#BPMCHANGE 83
21
#BPMCHANGE 93
12,
#BPMCHANGE 103
11
#BPMCHANGE 112.00000000000001
21
#BPMCHANGE 122
22
#BPMCHANGE 132
12
#BPMCHANGE 142
11
#BPMCHANGE 152
21
#BPMCHANGE 162
21
#BPMCHANGE 172
22,
,
#NEXTSONG TRIPLE HELIX,Yonokid,,TRIPLE HELIX.ogg,350,80,10,4
#BPMCHANGE 160
#MEASURE 4/4
#SCROLL 1.0
#BARLINEON
#DELAY 0.001
EXAM4:r,47,60,m
EXAM5:jb,24,12,l
#MEASURE 4/4
10010012,
10010011,
10010012,
10010010,
1022102210201120,
1022102011201120,
10001010202010101100110011001010,
2211225080201120,
#SCROLL 0.500000
11111000100000001000000010000000,
#SCROLL 0.750000
12121212,
12121212,
#SCROLL 1.000000
11111111202000200000202010102010,
#GOGOSTART
#SCROLL 1+0i
2
#SCROLL 1+0.05i
0
#SCROLL 1+0.1i
1
#SCROLL 1+0.15i
0
#SCROLL 1+0.2i
1
#SCROLL 1+0.25i
0
#SCROLL 1+0.3i
2
#SCROLL 1+0.35i
1
#SCROLL 1+0.4i
0
#SCROLL 1+0.45i
1
#SCROLL 1+0.5i
2
#SCROLL 1+0.55i
0
#SCROLL 1+0.6i
1
#SCROLL 1+0.65i
0
#SCROLL 1+0.7i
2
#SCROLL 1+0.75i
0,
#SCROLL 1+0.8i
1
#SCROLL 1+0.75i
1
#SCROLL 1+0.7i
2
#SCROLL 1+0.65i
0
#SCROLL 1+0.6i
1
#SCROLL 1+0.55i
0
#SCROLL 1+0.5i
2
#SCROLL 1+0.45i
0
#SCROLL 1+0.4i
1
#SCROLL 1+0.35i
0
#SCROLL 1+0.3i
2
#SCROLL 1+0.25i
2
#SCROLL 1+0.2i
1
#SCROLL 1+0.15i
1
#SCROLL 1+0.1i
2
#SCROLL 1+0.05i
2,
#SCROLL 1+0.0i
1
#SCROLL 1-0.05i
0
#SCROLL 1-0.1i
2
#SCROLL 1-0.15i
0
#SCROLL 1-0.2i
1
#SCROLL 1-0.25i
2
#SCROLL 1-0.3i
0
#SCROLL 1-0.35i
1
#SCROLL 1-0.4i
1
#SCROLL 1-0.45i
0
#SCROLL 1-0.5i
2
#SCROLL 1-0.55i
0
#SCROLL 1-0.6i
1
#SCROLL 1-0.65i
0
#SCROLL 1-0.7i
2
#SCROLL 1-0.75i
0,
#SCROLL 1-0.8i
1
#SCROLL 1-0.75i
0
#SCROLL 1-0.7i
1
#SCROLL 1-0.65i
2
#SCROLL 1-0.6i
1
#SCROLL 1-0.55i
0
#SCROLL 1-0.5i
2
#SCROLL 1-0.45i
0
#SCROLL 1-0.4i
1
#SCROLL 1-0.35i
0
#SCROLL 1-0.3i
1
#SCROLL 1-0.25i
2
#SCROLL 1-0.2i
1
#SCROLL 1-0.15i
1
#SCROLL 1-0.1i
2
#SCROLL 1-0.05i
2,
#SCROLL 1+0.0i
1
#SCROLL 1+0.05i
1
#SCROLL 1+0.1i
1
#SCROLL 1+0.15i
1
#SCROLL 1+0.2i
2
#SCROLL 1+0.25i
2
#SCROLL 1+0.3i
1
#SCROLL 1+0.35i
2
#SCROLL 1+0.4i
1
#SCROLL 1+0.45i
0
#SCROLL 1+0.5i
2
#SCROLL 1+0.55i
0
#SCROLL 1+0.6i
1
#SCROLL 1+0.65i
0
#SCROLL 1+0.7i
2
#SCROLL 1+0.75i
0,
#SCROLL 1+0.8i
1
#SCROLL 1+0.75i
0
#SCROLL 1+0.7i
1
#SCROLL 1+0.65i
2
#SCROLL 1+0.6i
0
#SCROLL 1+0.55i
1
#SCROLL 1+0.5i
2
#SCROLL 1+0.45i
0
#SCROLL 1+0.4i
1
#SCROLL 1+0.35i
1
#SCROLL 1+0.3i
2
#SCROLL 1+0.25i
2
#SCROLL 1+0.2i
1
#SCROLL 1+0.15i
1
#SCROLL 1+0.1i
2
#SCROLL 1+0.05i
2,
#SCROLL 1+0.0i
1
#SCROLL 1-0.05i
0
#SCROLL 1-0.1i
2
#SCROLL 1-0.15i
0
#SCROLL 1-0.2i
1
#SCROLL 1-0.25i
2
#SCROLL 1-0.3i
0
#SCROLL 1-0.35i
2
#SCROLL 1-0.4i
1
#SCROLL 1-0.45i
0
#SCROLL 1-0.5i
2
#SCROLL 1-0.55i
0
#SCROLL 1-0.6i
1
#SCROLL 1-0.65i
0
#SCROLL 1-0.7i
2
#SCROLL 1-0.75i
0,
#SCROLL 1-0.8i
1
#SCROLL 1-0.75i
0
#SCROLL 1-0.7i
2
#SCROLL 1-0.65i
2
#SCROLL 1-0.6i
1
#SCROLL 1-0.55i
0
#SCROLL 1-0.5i
2
#SCROLL 1-0.45i
0
#SCROLL 1-0.4i
1
#SCROLL 1-0.35i
0
#SCROLL 1-0.3i
2
#SCROLL 1-0.25i
2
#SCROLL 1-0.2i
1
#SCROLL 1-0.15i
1
#SCROLL 1-0.1i
2
#SCROLL 1-0.05i
2,
#SCROLL 1+0.0i
1
#SCROLL 1+0.05i
0
#SCROLL 1+0.1i
2
#SCROLL 1+0.15i
0
#SCROLL 1+0.2i
1
#SCROLL 1+0.25i
1
#SCROLL 1+0.3i
2
#SCROLL 1+0.35i
2
#SCROLL 1+0.4i
1
#SCROLL 1+0.45i
0
#SCROLL 1+0.5i
2
#SCROLL 1+0.55i
0
#SCROLL 1+0.6i
1
#SCROLL 1+0.65i
0
#SCROLL 1+0.7i
2
#SCROLL 1+0.75i
0,
#SCROLL 1+0.8i
1
#SCROLL 1+0.75i
1
#SCROLL 1+0.7i
2
#SCROLL 1+0.65i
2
#SCROLL 1+0.6i
1
#SCROLL 1+0.55i
0
#SCROLL 1+0.5i
2
#SCROLL 1+0.45i
0
#SCROLL 1+0.4i
1
#SCROLL 1+0.35i
0
#SCROLL 1+0.3i
2
#SCROLL 1+0.25i
2
#SCROLL 1+0.2i
1
#SCROLL 1+0.15i
1
#SCROLL 1+0.1i
2
#SCROLL 1+0.05i
2,
#SCROLL 1+0.0i
1
#SCROLL 1-0.05i
0
#SCROLL 1-0.1i
2
#SCROLL 1-0.15i
0
#SCROLL 1-0.2i
1
#SCROLL 1-0.25i
1
#SCROLL 1-0.3i
2
#SCROLL 1-0.35i
2
#SCROLL 1-0.4i
1
#SCROLL 1-0.45i
0
#SCROLL 1-0.5i
2
#SCROLL 1-0.55i
0
#SCROLL 1-0.6i
1
#SCROLL 1-0.65i
0
#SCROLL 1-0.7i
2
#SCROLL 1-0.75i
0,
#SCROLL 1-0.8i
1
#SCROLL 1-0.75i
1
#SCROLL 1-0.7i
2
#SCROLL 1-0.65i
1
#SCROLL 1-0.6i
1
#SCROLL 1-0.55i
0
#SCROLL 1-0.5i
2
#SCROLL 1-0.45i
0
#SCROLL 1-0.4i
1
#SCROLL 1-0.35i
0
#SCROLL 1-0.3i
2
#SCROLL 1-0.25i
2
#SCROLL 1-0.2i
1
#SCROLL 1-0.15i
1
#SCROLL 1-0.1i
2
#SCROLL 1-0.05i
2,
#SCROLL 1+0.0i
1
#SCROLL 1+0.05i
1
#SCROLL 1+0.1i
2
#SCROLL 1+0.15i
2
#SCROLL 1+0.2i
1
#SCROLL 1+0.25i
2
#SCROLL 1+0.3i
0
#SCROLL 1+0.35i
2
#SCROLL 1+0.4i
1
#SCROLL 1+0.45i
0
#SCROLL 1+0.5i
2
#SCROLL 1+0.55i
2
#SCROLL 1+0.6i
1
#SCROLL 1+0.65i
1
#SCROLL 1+0.7i
2
#SCROLL 1+0.75i
0,
#SCROLL 1+0.8i
1
#SCROLL 1+0.75i
0
#SCROLL 1+0.7i
2
#SCROLL 1+0.65i
1
#SCROLL 1+0.6i
1
#SCROLL 1+0.55i
0
#SCROLL 1+0.5i
2
#SCROLL 1+0.45i
0
#SCROLL 1+0.4i
1
#SCROLL 1+0.35i
0
#SCROLL 1+0.3i
1
#SCROLL 1+0.25i
1
#SCROLL 1+0.2i
2
#SCROLL 1+0.15i
1
#SCROLL 1+0.1i
2
#SCROLL 1+0.05i
2,
#SCROLL 1+0.0i
1
#SCROLL 1-0.05i
0
#SCROLL 1-0.1i
1
#SCROLL 1-0.15i
0
#SCROLL 1-0.2i
2
#SCROLL 1-0.25i
2
#SCROLL 1-0.3i
1
#SCROLL 1-0.35i
2
#SCROLL 1-0.4i
1
#SCROLL 1-0.45i
0
#SCROLL 1-0.5i
2
#SCROLL 1-0.55i
0
#SCROLL 1-0.6i
1
#SCROLL 1-0.65i
0
#SCROLL 1-0.7i
2
#SCROLL 1-0.75i
0,
#SCROLL 1-0.8i
1
#SCROLL 1-0.75i
1
#SCROLL 1-0.7i
2
#SCROLL 1-0.65i
1
#SCROLL 1-0.6i
1
#SCROLL 1-0.55i
0
#SCROLL 1-0.5i
2
#SCROLL 1-0.45i
0
#SCROLL 1-0.4i
1
#SCROLL 1-0.35i
0
#SCROLL 1-0.3i
2
#SCROLL 1-0.25i
2
#SCROLL 1-0.2i
1
#SCROLL 1-0.15i
1
#SCROLL 1-0.1i
1
#SCROLL 1-0.05i
1,
#GOGOEND
#SCROLL 1
1022102210201120,
1022102210201120,
1120102210221120,
1122112211221122,
1120112010201120,
1020112010221022,
1020112010221020,
1022102011221120,
2000001120221120,
1000001120221120,
1120112011202211,
2010201202112212,
1120221120201122,
1020221120201022,
1222121202121212,
1122120202221212,
1020112210201120,
1122102010221011,
1012112011121222,
1202020201111110,
1022112011201020,
1022112011201010,
1012102011201212,
100200200200100200200200100000101010200200100000,
#GOGOSTART
2211221122112211,
2222111122221222,
5000802210221121,
100000200100200000100200101010200000100000200200,
1021102011201020,
1211121011221212,
1121121121112111,
211211211211211211211211,
5000000000008022,
100100200200200100200200100100200200102010100200,
100000100200100200200000100200100100200200102010,
100100200200100100200200100100200200102010100200,
1010121210201122,
1020212112121122,
1122112211221212,
11111111202000201000202010102010,
#GOGOEND
11022012,
11022012,
11022012,
11022012,
7,
0008,
0022112210201012,
2122121010201120,
11111000100000001000000010000000,
12121212,
12121212,
11111111202000200000202010102010,
#GOGOSTART
#SCROLL 1+0i
2
#SCROLL 1+0.075i
0
#SCROLL 1+0.15i
1
#SCROLL 1+0.225i
0
#SCROLL 1+0.3i
1
#SCROLL 1+0.375i
0
#SCROLL 1+0.45i
2
#SCROLL 1+0.525i
1
#SCROLL 1+0.6i
1
#SCROLL 1+0.675i
1
#SCROLL 1+0.75i
2
#SCROLL 1+0.825i
0
#SCROLL 1+0.9i
1
#SCROLL 1+0.975i
0
#SCROLL 1+1.05i
2
#SCROLL 1+1.125i
0,
#SCROLL 1+1.2i
1
#SCROLL 1+1.125i
1
#SCROLL 1+1.05i
2
#SCROLL 1+0.975i
0
#SCROLL 1+0.9i
1
#SCROLL 1+0.825i
0
#SCROLL 1+0.75i
2
#SCROLL 1+0.675i
0
#SCROLL 1+0.6i
1
#SCROLL 1+0.525i
0
#SCROLL 1+0.45i
2
#SCROLL 1+0.375i
2
#SCROLL 1+0.3i
1
#SCROLL 1+0.225i
1
#SCROLL 1+0.15i
2
#SCROLL 1+0.075i
2,
#SCROLL 1+0.0i
1
#SCROLL 1-0.075i
0
#SCROLL 1-0.15i
2
#SCROLL 1-0.225i
0
#SCROLL 1-0.3i
1
#SCROLL 1-0.375i
2
#SCROLL 1-0.45i
1
#SCROLL 1-0.525i
1
#SCROLL 1-0.6i
2
#SCROLL 1-0.675i
0
#SCROLL 1-0.75i
2
#SCROLL 1-0.825i
0
#SCROLL 1-0.9i
1
#SCROLL 1-0.975i
0
#SCROLL 1-1.05i
2
#SCROLL 1-1.125i
0,
#SCROLL 1-1.2i
1
#SCROLL 1-1.175i
0
#SCROLL 1-1.15i
0
#SCROLL 1-1.125i
0
#SCROLL 1-1.1i
0
#SCROLL 1-1.075i
0
#SCROLL 1-1.05i
2
#SCROLL 1-1.025i
0
#SCROLL 1-1.0i
2
#SCROLL 1-0.975i
0
#SCROLL 1-0.95i
2
#SCROLL 1-0.925i
0
#SCROLL 1-0.9i
1
#SCROLL 1-0.875i
0
#SCROLL 1-0.85i
0
#SCROLL 1-0.825i
1
#SCROLL 1-0.8i
0
#SCROLL 1-0.775i
0
#SCROLL 1-0.75i
2
#SCROLL 1-0.725i
0
#SCROLL 1-0.7i
0
#SCROLL 1-0.675i
2
#SCROLL 1-0.65i
0
#SCROLL 1-0.625i
0
#SCROLL 1-0.6i
1
#SCROLL 1-0.575i
0
#SCROLL 1-0.55i
0
#SCROLL 1-0.525i
0
#SCROLL 1-0.5i
0
#SCROLL 1-0.475i
0
#SCROLL 1-0.45i
1
#SCROLL 1-0.425i
0
#SCROLL 1-0.4i
0
#SCROLL 1-0.375i
2
#SCROLL 1-0.35i
0
#SCROLL 1-0.325i
0
#SCROLL 1-0.3i
1
#SCROLL 1-0.275i
0
#SCROLL 1-0.25i
0
#SCROLL 1-0.225i
1
#SCROLL 1-0.2i
0
#SCROLL 1-0.175i
0
#SCROLL 1-0.15i
2
#SCROLL 1-0.125i
0
#SCROLL 1-0.1i
2
#SCROLL 1-0.075i
0
#SCROLL 1-0.05i
2
#SCROLL 1-0.025i
0,
#SCROLL 1-0.0i
1
#SCROLL 1+0.075i
1
#SCROLL 1+0.15i
1
#SCROLL 1+0.225i
1
#SCROLL 1+0.3i
2
#SCROLL 1+0.375i
2
#SCROLL 1+0.45i
1
#SCROLL 1+0.525i
2
#SCROLL 1+0.6i
1
#SCROLL 1+0.675i
0
#SCROLL 1+0.75i
2
#SCROLL 1+0.825i
0
#SCROLL 1+0.9i
1
#SCROLL 1+0.975i
0
#SCROLL 1+1.05i
2
#SCROLL 1+1.125i
0,
#SCROLL 1+1.2i
1
#SCROLL 1+1.125i
0
#SCROLL 1+1.05i
1
#SCROLL 1+0.975i
2
#SCROLL 1+0.9i
1
#SCROLL 1+0.825i
0
#SCROLL 1+0.75i
2
#SCROLL 1+0.675i
0
#SCROLL 1+0.6i
1
#SCROLL 1+0.525i
1
#SCROLL 1+0.45i
1
#SCROLL 1+0.375i
1
#SCROLL 1+0.3i
2
#SCROLL 1+0.225i
2
#SCROLL 1+0.15i
2
#SCROLL 1+0.075i
2,
#SCROLL 1+0.0i
1
#SCROLL 1-0.075i
0
#SCROLL 1-0.15i
2
#SCROLL 1-0.225i
0
#SCROLL 1-0.3i
1
#SCROLL 1-0.375i
2
#SCROLL 1-0.45i
1
#SCROLL 1-0.525i
2
#SCROLL 1-0.6i
1
#SCROLL 1-0.675i
0
#SCROLL 1-0.75i
2
#SCROLL 1-0.825i
0
#SCROLL 1-0.9i
1
#SCROLL 1-0.975i
0
#SCROLL 1-1.05i
2
#SCROLL 1-1.125i
0,
#SCROLL 1-1.2i
1
#SCROLL 1-1.175i
0
#SCROLL 1-1.15i
0
#SCROLL 1-1.125i
1
#SCROLL 1-1.1i
0
#SCROLL 1-1.075i
0
#SCROLL 1-1.05i
0
#SCROLL 1-1.025i
0
#SCROLL 1-1.0i
0
#SCROLL 1-0.975i
2
#SCROLL 1-0.95i
0
#SCROLL 1-0.925i
0
#SCROLL 1-0.9i
1
#SCROLL 1-0.875i
0
#SCROLL 1-0.85i
0
#SCROLL 1-0.825i
0
#SCROLL 1-0.8i
0
#SCROLL 1-0.775i
0
#SCROLL 1-0.75i
2
#SCROLL 1-0.725i
0
#SCROLL 1-0.7i
0
#SCROLL 1-0.675i
0
#SCROLL 1-0.65i
0
#SCROLL 1-0.625i
0
#SCROLL 1-0.6i
1
#SCROLL 1-0.575i
0
#SCROLL 1-0.55i
1
#SCROLL 1-0.525i
0
#SCROLL 1-0.5i
1
#SCROLL 1-0.475i
0
#SCROLL 1-0.45i
2
#SCROLL 1-0.425i
0
#SCROLL 1-0.4i
0
#SCROLL 1-0.375i
2
#SCROLL 1-0.35i
0
#SCROLL 1-0.325i
0
#SCROLL 1-0.3i
1
#SCROLL 1-0.275i
0
#SCROLL 1-0.25i
0
#SCROLL 1-0.225i
1
#SCROLL 1-0.2i
0
#SCROLL 1-0.175i
0
#SCROLL 1-0.15i
2
#SCROLL 1-0.125i
0
#SCROLL 1-0.1i
0
#SCROLL 1-0.075i
2
#SCROLL 1-0.05i
0
#SCROLL 1-0.025i
0,
#SCROLL 1-0.0i
1
#SCROLL 1+0.075i
0
#SCROLL 1+0.15i
2
#SCROLL 1+0.225i
0
#SCROLL 1+0.3i
1
#SCROLL 1+0.375i
1
#SCROLL 1+0.45i
2
#SCROLL 1+0.525i
2
#SCROLL 1+0.6i
1
#SCROLL 1+0.675i
0
#SCROLL 1+0.75i
2
#SCROLL 1+0.825i
0
#SCROLL 1+0.9i
1
#SCROLL 1+0.975i
0
#SCROLL 1+1.05i
2
#SCROLL 1+1.125i
0,
#SCROLL 1+1.2i
1
#SCROLL 1+1.125i
1
#SCROLL 1+1.05i
2
#SCROLL 1+0.975i
2
#SCROLL 1+0.9i
1
#SCROLL 1+0.825i
0
#SCROLL 1+0.75i
2
#SCROLL 1+0.675i
0
#SCROLL 1+0.6i
1
#SCROLL 1+0.525i
0
#SCROLL 1+0.45i
2
#SCROLL 1+0.375i
2
#SCROLL 1+0.3i
1
#SCROLL 1+0.225i
1
#SCROLL 1+0.15i
2
#SCROLL 1+0.075i
2,
#SCROLL 1+0.0i
1
#SCROLL 1-0.075i
0
#SCROLL 1-0.15i
2
#SCROLL 1-0.225i
0
#SCROLL 1-0.3i
1
#SCROLL 1-0.375i
1
#SCROLL 1-0.45i
2
#SCROLL 1-0.525i
2
#SCROLL 1-0.6i
1
#SCROLL 1-0.675i
0
#SCROLL 1-0.75i
2
#SCROLL 1-0.825i
0
#SCROLL 1-0.9i
1
#SCROLL 1-0.975i
0
#SCROLL 1-1.05i
2
#SCROLL 1-1.125i
0,
#SCROLL 1-1.2i
1
#SCROLL 1-1.175i
0
#SCROLL 1-1.15i
0
#SCROLL 1-1.125i
0
#SCROLL 1-1.1i
0
#SCROLL 1-1.075i
0
#SCROLL 1-1.05i
2
#SCROLL 1-1.025i
0
#SCROLL 1-1.0i
2
#SCROLL 1-0.975i
0
#SCROLL 1-0.95i
2
#SCROLL 1-0.925i
0
#SCROLL 1-0.9i
1
#SCROLL 1-0.875i
0
#SCROLL 1-0.85i
0
#SCROLL 1-0.825i
1
#SCROLL 1-0.8i
0
#SCROLL 1-0.775i
0
#SCROLL 1-0.75i
2
#SCROLL 1-0.725i
0
#SCROLL 1-0.7i
0
#SCROLL 1-0.675i
2
#SCROLL 1-0.65i
0
#SCROLL 1-0.625i
0
#SCROLL 1-0.6i
1
#SCROLL 1-0.575i
0
#SCROLL 1-0.55i
0
#SCROLL 1-0.525i
0
#SCROLL 1-0.5i
0
#SCROLL 1-0.475i
0
#SCROLL 1-0.45i
2
#SCROLL 1-0.425i
0
#SCROLL 1-0.4i
0
#SCROLL 1-0.375i
2
#SCROLL 1-0.35i
0
#SCROLL 1-0.325i
0
#SCROLL 1-0.3i
1
#SCROLL 1-0.275i
0
#SCROLL 1-0.25i
0
#SCROLL 1-0.225i
1
#SCROLL 1-0.2i
0
#SCROLL 1-0.175i
0
#SCROLL 1-0.15i
2
#SCROLL 1-0.125i
0
#SCROLL 1-0.1i
0
#SCROLL 1-0.075i
2
#SCROLL 1-0.05i
0
#SCROLL 1-0.025i
0,
#SCROLL 1-0.0i
1
#SCROLL 1+0.075i
1
#SCROLL 1+0.15i
2
#SCROLL 1+0.225i
2
#SCROLL 1+0.3i
1
#SCROLL 1+0.375i
2
#SCROLL 1+0.45i
1
#SCROLL 1+0.525i
2
#SCROLL 1+0.6i
1
#SCROLL 1+0.675i
0
#SCROLL 1+0.75i
2
#SCROLL 1+0.825i
0
#SCROLL 1+0.9i
1
#SCROLL 1+0.975i
0
#SCROLL 1+1.05i
2
#SCROLL 1+1.125i
0,
#SCROLL 1+1.2i
1
#SCROLL 1+1.125i
1
#SCROLL 1+1.05i
2
#SCROLL 1+0.975i
1
#SCROLL 1+0.9i
1
#SCROLL 1+0.825i
0
#SCROLL 1+0.75i
2
#SCROLL 1+0.675i
0
#SCROLL 1+0.6i
1
#SCROLL 1+0.525i
0
#SCROLL 1+0.45i
1
#SCROLL 1+0.375i
1
#SCROLL 1+0.3i
2
#SCROLL 1+0.225i
1
#SCROLL 1+0.15i
2
#SCROLL 1+0.075i
2,
#SCROLL 1+0.0i
1
#SCROLL 1-0.075i
0
#SCROLL 1-0.15i
1
#SCROLL 1-0.225i
0
#SCROLL 1-0.3i
1
#SCROLL 1-0.375i
2
#SCROLL 1-0.45i
1
#SCROLL 1-0.525i
2
#SCROLL 1-0.6i
1
#SCROLL 1-0.675i
0
#SCROLL 1-0.75i
2
#SCROLL 1-0.825i
0
#SCROLL 1-0.9i
1
#SCROLL 1-0.975i
0
#SCROLL 1-1.05i
2
#SCROLL 1-1.125i
0,
#SCROLL 1-1.2i
1
#SCROLL 1-1.175i
0
#SCROLL 1-1.15i
0
#SCROLL 1-1.125i
1
#SCROLL 1-1.1i
0
#SCROLL 1-1.075i
0
#SCROLL 1-1.05i
0
#SCROLL 1-1.025i
0
#SCROLL 1-1.0i
0
#SCROLL 1-0.975i
2
#SCROLL 1-0.95i
0
#SCROLL 1-0.925i
0
#SCROLL 1-0.9i
1
#SCROLL 1-0.875i
0
#SCROLL 1-0.85i
0
#SCROLL 1-0.825i
0
#SCROLL 1-0.8i
0
#SCROLL 1-0.775i
0
#SCROLL 1-0.75i
2
#SCROLL 1-0.725i
0
#SCROLL 1-0.7i
2
#SCROLL 1-0.675i
0
#SCROLL 1-0.65i
2
#SCROLL 1-0.625i
0
#SCROLL 1-0.6i
1
#SCROLL 1-0.575i
0
#SCROLL 1-0.55i
0
#SCROLL 1-0.525i
1
#SCROLL 1-0.5i
0
#SCROLL 1-0.475i
0
#SCROLL 1-0.45i
2
#SCROLL 1-0.425i
0
#SCROLL 1-0.4i
0
#SCROLL 1-0.375i
2
#SCROLL 1-0.35i
0
#SCROLL 1-0.325i
0
#SCROLL 1-0.3i
1
#SCROLL 1-0.275i
0
#SCROLL 1-0.25i
0
#SCROLL 1-0.225i
1
#SCROLL 1-0.2i
0
#SCROLL 1-0.175i
0
#SCROLL 1-0.15i
1
#SCROLL 1-0.125i
0
#SCROLL 1-0.1i
0
#SCROLL 1-0.075i
1
#SCROLL 1-0.05i
0
#SCROLL 1-0.025i
0,
#GOGOEND
#SCROLL 13.954
G,
,
#NEXTSONG Re:Cøllapse,H888. (H5 + DashyDesu),,Re:Cøllapse.ogg,350,80,10,3
#BPMCHANGE 215
#MEASURE 4/4
#SCROLL 1.0
#BARLINEON
#DELAY 0.023
EXAM4:r,28,41,m
EXAM5:jb,30,15,l
#MEASURE 8/4
#SCROLL 0.5
1 ,
2
2,
10
02,
1010
1122,
#MEASURE 4/4
#SCROLL 2
#GOGOSTART
3003003003007080,
#GOGOEND
#SCROLL 1
10101011,
100010001011
#SCROLL 1.5
4000,
#SCROLL 1
1020102010201022,
102210221010
#SCROLL 1.5
4000,
#SCROLL 1
1020111110201111,
101010221010
#SCROLL 1.5
4000,
#SCROLL 1
33303030,
333
#SCROLL 1.5
4,
#SCROLL 1
6080001111111011,
1011011011104000,
6080001111111011,
1011011030040030,
6080001111111011,
1011011011103000,
1020102010201011,
1022102210104000,
33321212,
1020102010201011,
12121211,
1111102210101110,
1010401010104011,
1010401110104010,
1010221020112211,
1022102210104000,
#GOGOSTART
1022102010201000,
1022102210111010,
12121030,
1022102210101011,
1020102210201022,
1020102011201020,
12121014,
1020102211011011,
1022102010201000,
1022102210111010,
12121010,
1022102210101011,
1020102210201022,
1020102011221220,
30303033,
3000303030103011,
1022102010201020,
1122122212221120,
#GOGOEND
#SCROLL 1.333
3002203002203022,
2030222030203020,
3002203020203022,
20302020301040
#SCROLL 1
22,
#GOGOSTART
1022102010201022,
1020102212221020,
1020102010221020,
1111222211221210,
#GOGOEND
#SCROLL 1.333
3022203022203022,
2030222030203020,
3022223022223022,
22302222301040
#SCROLL 1
22,
#GOGOSTART
1022102210221022,
1122112212221020,
1122112211221122,
1111222211221210,
#GOGOEND
30101012,
1000100010201011,
1020102010221020,
1022102012221020,
1111101111101110,
3003003003003000,
#SCROLL 0.5
3,
#SCROLL 1.888
4,
#GOGOSTART
#SCROLL 1.1
1002102012221022,
1002102012201020,
1022102210201120,
1020112012021222,
1002102012221022,
1002102012221020,
300000101010100000101010100000100000200200200000,
3010211012021220,
1021201011012022,
1021202212012022,
100000101010100000101010100000100000100100100000,
4000201110112022,
1022102012221022,
1022102012221020,
1022102210201010,
1020111110104000,
#GOGOEND
#SCROLL 0.8
1001001001002220,
#GOGOSTART
#SCROLL 1.33
1101201101102011,
1011202210112010,
1011210212022012,
1101201101102011,
1101202212112010,
300000101010100000101010100000100000100100100100,
1011202212202010,
1101201101102011,
1011210212112010,
300000101010100000101010100000100000200200100000,
3011201121012022,
1101201101102011,
1011210212112010,
1022102210221210,
1022111110114000,
#GOGOEND
#SCROLL 1
6080001111111011,
1011011011104000,
6080001111111011,
1011011030040030,
6080001111111011,
1011011011103000,
1020102010201011,
1022102210104000,
#GOGOSTART
#SCROLL 1.333
6080201111112011,
1011211011104000,
6080201111112011,
1011211030042030,
6080201111112011,
1021201111203000,
#SCROLL 1.667
101010100100100000100000101010100100100000100100,
#SCROLL 2
111111111111111111111111,
#GOGOEND
#BARLINEOFF
#SCROLL 0.1
#BPMCHANGE 88.888
78,
,
#END
