TITLE:Synthsea
SUBTITLE:--Taichenko
BPM:190
WAVE:Synthsea.ogg
OFFSET:0
DEMOSTART:141.473
PREIMAGE:Synthsea.png
SCOREMODE:2
MAKER:Taichenko_oni

COURSE:Tower
LEVEL:10.5
LIFE:6
BALLOON:
SCOREINIT:350
SCOREDIFF:0
#START
#SCROLL 0.8
3,
1,
11,
1,
1,
1,
11,
1,
3,
1,
11,
1011,
1,
1,
1011,
1,
#SCROLL 1
3001,
20104002,
3021,
4142,
30200210,
40021240,
12220210,
40021000,
3221,
20104002,
30222010,
4142,
300000000000200000200000200200200200202020200000,
400000200000222200400000,
300000000000200000200000200200200200202020200000,
4212,
3201,
20104022,
3221,
4142,
30200210,
40021240,
12220210,
40021000,
3221,
2140,
3241,
202020200200200000100000400000000000200000000000,
10224010,
2142,
10224010,
2141,
#SCROLL 0.8
1,
1,
11,
1,
1,
1,
1,
1,
#SCROLL 1
1000201110102000,
1010201210102000,
1000201210102000,
1010201022102000,
1000201110102000,
1010201210102000,
1000201210102000,
1011201020102000,
100000000100200000100100100000100000200000101010,
1010201122102012,
1000201110102022,
1010201122102000,
100000000100200000100100100000100000200000101010,
1010201122102012,
1010202220102010,
4,
1000201210102011,
1001201022102012,
1000201110102012,
1010201122102000,
1000202220102022,
1022221020102012,
1000222020102012,
1010201020202222,
1001201022102222,
1021202120102222,
1001202221102022,
1201202120212012,
1001201011112011,
1010201020102012,
1001201011112012,
1010201020202222,
1002102010121020,
1021202121102012,
1001202221012222,
1000201120102020,
1011102020102020,
1022202220102010,
1011102020111020,
100100100200100000101010200000200000200200200200,
1001202011112012,
1001201122102022,
1221221211212221,
2112112121112211,
100000000100200000200000100100100000200000101010,
1001201120102000,
1221222122112211,
2021101120202222,
#SCROLL 0.8
1001,
0110,
1001,
0110,
1001,
0110,
1001,
4,
#SCROLL 1
#GOGOSTART
1001201210102022,
1010201120102022,
1001201122102012,
1010201120102222,
1001201120102022,
1110201202102012,
1001201111012012,
1010201022102222,
1001201210102012,
1010201122102222,
1001201222102012,
1011201120102222,
1001201210102012,
1110201202112012,
1001201221012012,
1010201022102022,
1001201210102022,
1010201122102222,
1001201122102012,
1010201120102222,
1001201120102022,
1110201202102012,
1001201111012012,
1010201022102222,
1001202211102012,
1010201122102212,
1001201221102012,
1011201220102222,
1001221210102012,
1101201221012012,
1001201121012012,
1010201022102022,
#GOGOEND
1,
,
,
,
2,
,
2,
22,
1111,
#BPMCHANGE 192
1111,
#BPMCHANGE 194
1111,
#BPMCHANGE 196
1111,
#BPMCHANGE 198
1111
#BPMCHANGE 200
1111,
#BPMCHANGE 202
1111
#BPMCHANGE 204
1111,
#BPMCHANGE 208
1111
#BPMCHANGE 212
1111
#BPMCHANGE 216
1111
#BPMCHANGE 222
1110,
#BPMCHANGE 222
3000300030301011,
#GOGOSTART
1022102011112012,
1011201022102012,
1011201011112012,
1011201022102011,
1010400010112010,
2210201122102011,
2011201121102010,
#GOGOEND
3000300030301011,
#GOGOSTART
1021102210102012,
1010201022102012,
1021102210102012,
1010201022102011,
1010400010221020,
1110201121102011,
2011201121102010,
3000300030301011,
#GOGOEND
1111,
10101011,
1111,
1010100010102022,
12121212,
1020102010202022,
12121212,
12121400,
1000201110102022,
1000201210102022,
1010201110102022,
1010201022102010,
1020201020002011,
1010201022102010,
12211201,
0020001020102022,
#GOGOSTART
1010201110102022,
1010201022102222,
1020201000112010,
2210201022102010,
1000201110201122,
1022201022102121,
1010201110201121,
#GOGOEND
1020102010102222,
#GOGOSTART
1021001010210111,
1021011110210010,
2211112212212211,
211211212111111
#GOGOEND
1,
#GOGOSTART
101200
#GOGOEND
10
#GOGOSTART
101201
#GOGOEND
11,
#GOGOSTART
101201
#GOGOEND
11
#GOGOSTART
101200
#GOGOEND
11,
#GOGOSTART
2211221122122122,
#GOGOEND
1101101111011011,
#MEASURE 1/8
1,
#SCROLL 4.49
,
#SCROLL 4.09
,
#SCROLL 4.09
,
#SCROLL 3.72
,
#SCROLL 3.72
,
#SCROLL 3.39
,
#SCROLL 3.39
,
#SCROLL 3.09
,
#SCROLL 3.09
,
#SCROLL 2.81
,
#SCROLL 2.81
,
#SCROLL 2.56
,
#SCROLL 2.56
,
#SCROLL 2.33
,
#SCROLL 2.33
,
#SCROLL 2.12
,
#SCROLL 2.12
,
#SCROLL 1.93
,
#SCROLL 1.93
,
#SCROLL 1.76
,
#SCROLL 1.76
,
#SCROLL 1.6
,
#SCROLL 1.6
,
#SCROLL 1.46
,
#SCROLL 1.46
,
#SCROLL 1.33
,
#SCROLL 1.33
,
#SCROLL 1.21
,
#SCROLL 1.21
,
#SCROLL 1.1
,
#SCROLL 1.1
,
#MEASURE 4/4
#SCROLL 1
#GOGOSTART
#BARLINEON
#GOGOSTART
3000201110102022,
1010201120102122,
1021102011112011,
1010201212102011,
1000201210102011,
2210201120102211,
2011201022102011,
2011201120112222,
1000201110102012,
1010201120102211,
1010201210102222,
1011201022102000,
1022102210102211,
1011201122102222,
1022102211102010,
#GOGOEND
1000100010102222,
#GOGOSTART
1011201212102022,
1010201120102222,
1021102011112012,
1010201212102011,
1000201212102011,
2010201122102211,
2011201022102011,
2011201210112222,
1000202210102012,
1210201120102211,
1010201210102222,
1111201022102211,
1022102210102211,
1011201122102222,
1022102210221020,
3000300030101111,
#GOGOEND
1,
#BARLINEOFF
,
,
,
,
,
#BARLINEON
#BPMCHANGE 111
20202220,
20222020,
20202220,
22202020,
20202220,
20222020,
20202220,
2222,
1001002001002011,
100000000100000000100000000000101010200000100100,
1011010200222111,
100000000100000000100000400000101010200000100100,
1001002001002011,
100000000100000000100000000000101010200000100100,
1011010200222111,
1001001040102020,
3,
#END
