// ===== Made using 0AuBSQ's Dan Chart Maker =====
TITLE:—á’i
BPM:135
WAVE:CITYSCAPE.ogg
DEMOSTART:71.334
SCOREMODE:2

COURSE:Dan
LEVEL:10
BPM:135
BALLOON:12,12,19,39
EXAM1:g,92,100,m
EXAM2:jb,35,16,l
EXAM3:a,88,94,m
DANTICK:5
DANTICKCOLOR:#00aaff
#START
#NEXTSONG CITYSCAPE,Makotora,,CITYSCAPE.ogg,350,80,9,3
#BPMCHANGE 135
#MEASURE 4/4
#SCROLL 1.0
#DELAY 0.224
EXAM4:r,18,24,m
EXAM5:jb,10,5,l 3001201010012011,
1001201010012012,
1001201010012011,
1001201010012012,
1001221010012211,
1001221010012212,
1001221010012211,
7008,
#GOGOSTART
3001201011012011,
1001201011012012,
1001201011012011,
1022102010221020,
3001221011012211,
1001221011012212,
1001221011012211,
1022102010221020,
#GOGOEND
#BARLINEOFF
#SCROLL 0.75
32020122,
10221020,
12020122,
10221122,
12020202,
11221020,
10000202,
11221212,
#BARLINEON
#SCROLL 1
3001201010012011,
10221020,
1001201010012012,
10221122,
1001201010012011,
11221020,
1001201010012012,
11221122,
#SCROLL 1.15
3011201040112010,
3012201040122020,
#SCROLL 1.3
3011201040122010,
300000100200200000100000400000100100200000202020,
#SCROLL 1.45
2121212121212121,
2211221122112211,
#SCROLL 1.6
202020100100202020100100202020100100202020100100,
7008,
#SCROLL 1
#GOGOSTART
3022102010212012,
1202102011221020,
1022102010212012,
1202102011221122,
1022102010212012,
1010202011102220,
1022102011201022,
100200200200100200200200100200200200101010100000,
1122112212212211,
1222121212221212,
1121221212122121,
1122112212212211,
1221122112211222,
1221221112122121,
1122112211221212,
100200200200100200200200100200200200101010100000,
#GOGOEND
3001221011012211,
1001221011012212,
1001221011012211,
1022102010221020,
3001221010012211,
1001221010012212,
1001201010012010,
1222122212222120,
3,
#NEXTSONG Deceiving the Deceiver,H5,,DeceivingTheDeceiver.ogg,350,80,9,3
#BPMCHANGE 175.00
#MEASURE 4/4
#SCROLL 1.0
#DELAY 0.0
EXAM4:r,40,62,m
EXAM5:jb,15,8,l
#MEASURE 1/4
0022,
#MEASURE 4/4
20020010,
00000012,
1000000000000011,
2000001000000022,
10000012,
20010020,
1000000000000011,
20020010,
12121210,
1021102110201000,
1020102110201000,
1120102110201000,
12121210,
1021102110201000,
1020102110201000,
20002000111010102000200000001010,
0000202022022022,
2020220220202022,
2020220220202022,
2020220220202222,
2020220220202022,
2020220220202022,
2020220220202022,
2020102011101020,
1011202010112020,
1011202010112020,
1021102010211020,
1021102010211020,
2011201020112010,
2011201020112010,
1021102010211020,
1020102011221122,
#GOGOSTART
1010120120112020,
1010120120112020,
1020120120112020,
1020210210112010,
1010120120112020,
1010120120112020,
1020120120112020,
1020210210211010,
#GOGOEND
2020020020020020,
0020020020020020,
#GOGOSTART
1020120120112020,
1020210210112010,
1010120120112020,
1010120120112020,
1020120120112020,
1020210210112121,
00
#GOGOEND
11202010112020,
1011202010112020,
1021102010211020,
1021102010211020,
2011201020112010,
2011201020112010,
1021102010211020,
1122112211221122,
11220000,
0000002220020020,
10020020,
12001200,
11220000,
0000002220020020,
10020022,
1020001011112222,
00
#SCROLL 3.000000
30030030030030,
#SCROLL 1.000000
1010201110201212,
00
#SCROLL 3.000000
30030030030030,
#SCROLL 1.000000
1211201211202222,
00
#SCROLL 3.000000
30030030030030,
#SCROLL 1.000000
1010201110201212,
00
#SCROLL 3.000000
30030030030030,
#SCROLL 1.000000
1211201211202222,
0010010020020012,
0010010020020012,
2010010020020012,
0010010020020012,
2012102110121021,
2012102110121021,
22222222,
2222222222222222,
7,
0008,
#GOGOSTART
1020120120112020,
1020210210112012,
1010120120112022,
1010120120112020,
1020120120112020,
10
#SCROLL 3.000000
40040040040040,
#SCROLL 1.000000
1010120120112022,
1010120120112020,
1020120120112020,
1020210210112021,
1010120120112122,
1010120120112120,
1020120120112120,
20201010202010102020101011101110,
#GOGOEND
200020002000200020002000200000000000100000000000000000000000000000000000200200200000200000200000,
20000000000000000000000022022020,
2000000000000022,
1111112000000011,
20000011,
20010020,
5000800000000022,
7,
0,
8,
#NEXTSONG Breaking Point,Yonokid,,Breaking Point.ogg,350,80,10,3
#BPMCHANGE 180
#MEASURE 4/4
#SCROLL 1.0
#DELAY 0.0
EXAM4:r,16,24,m
EXAM5:jb,25,15,l
#SCROLL 2
2
#SCROLL 1.9
2
#SCROLL 1.8
2
#SCROLL 1.7
2
#SCROLL 1.6
2
#SCROLL 1.55
2
#SCROLL 1.5
2
#SCROLL 1.45
2
#SCROLL 1.4
1
#SCROLL 1.35
2
#SCROLL 1.3
2
#SCROLL 1.25
2
#SCROLL 1.2
2
#SCROLL 1.15
2
#SCROLL 1.1
2
#SCROLL 1.05
2,
#SCROLL 1
12,
3003003020302211,
2000211220002122,
10212300,
1000111120120120,
3021203020102100,
1000001120001112,
2211221122112211,
1002112110021122,
1002112110021122,
1002112110021122,
1002112110021221,
1022201022201020,
1022201022201020,
1222221222221222,
1010100020020020,
#SCROLL 0.8
1010101120101011,
1011101120101211,
1010101120101011,
2221022210012212,
1010101120101011,
1110101120111011,
1001112010021121,
121212111111,
#SCROLL 0.9
1011201110112012,
1011211210112211,
1011201110112012,
1011201111222121,
1010201110102012,
1010201112212212,
102010200100100200100100200200100200100200200100,
100000201010200000200100200000200100200200100200,
#GOGOSTART
#SCROLL 1
2011201120112112,
2011201220122011,
2011201220112012,
2011201121212121,
2011201120112101,
2111201120112110,
2011211120112112,
2011211120212021,
2011201121122112,
2011211120112011,
2110211021102110,
2011201121212121,
2011201120112121,
2011201121121120,
2011201121111212,
100200200100200100200100201020102010200200100200,
#GOGOEND
1,
#SCROLL 0.75
,
22,
20020020,
2000000020020020,
20020020,
2000000000001112,
2221221121112111,
1,
0000000000001111,
2000111220001122,
20120120,
2000111120120120,
20020020,
2,
5008,
#SCROLL 3
3,
3003003000300300,
3,
30000300,
3,
3003003000300300,
300000000000
#SCROLL 1
1112,
2221222122112222,
12121212,
1021102010201120,
12121212,
1021102010201120,
1122112211221122,
1122112211221122,
111111111111111111111111,
111111111111111111111111,
211411411411,
#GOGOSTART
#SCROLL 1.2
1021102010211212,
1222122211221212,
1021202010212020,
1120112012222111,
1020112020121120,
1222211121222122,
1020112011201122,
2211221111221122,
1021102010211212,
1222122211221212,
1021202010212020,
1120112012222110,
1221221222122122,
1221221222122122,
1021102011201112,
2211221122211122,
#GOGOEND
1000000000000
#SCROLL 1
222,
#BARLINEOFF
1,
#END
