TITLE:Liberation
SUBTITLE:--DeBisco
WAVE:Liberation.ogg
PREIMAGE:Liberation.png
BPM:142
OFFSET:-0.211
DEMOSTART:1.901

COURSE:Edit
LEVEL:9
BALLOON:
SCOREINIT:860
SCOREDIFF:0
NOTEDESIGNER4:Colin
#START
0012112212102211,
#GOGOSTART
2011221120120210,
1022112010201022,
1011221010121120,
1022101020221111,
2011221120120210,
1022112010201022,
1011221010121120,
1022101020221111,
2011221120120210,
1022112010201022,
1011221010121120,
1022101020221111,
2011221120120210,
1022112010201022,
100000100100200200100000100000100200100100202020,
#GOGOEND
1022101201212211,
2011202210102210,
1021212022112012,
1010221012102011,
2210221020212111,
2011202210102210,
1021212022112012,
1010221012102011,
202020100000200200100000200000200100200100100000,
1021201121112210,
2211221122112020,
1022102012102210,
2210221120112210,
1021201121112210,
2211221122112020,
1022102012102210,
2210221120112222,
100000200200100000100000100200100000100200102020,
1021012012112210,
1211201210120210,
1012112212112222,
1022101210120210,
202020100200200200100100200100200100200100100200,
1012101210120210,
2012112212112222,
1022101210120210,
202020100200200200100100200100200100200100100200,
202020100200200200100100200100200100000100200000,
202020100200200200100100200100200100200000200200,
1012021010120210,
1012021010120210,
1012112211221122,
1000000010102222,
#GOGOSTART
1012101010120210,
1122112011221122,
1011221010210120,
1122112010201020,
1012101010120210,
1122112011221122,
1011221010210120,
1122112010201020,
1012101010120210,
1122112011221122,
1011221010210120,
1122112010201020,
1012101010120210,
1122112011221122,
100000100100200200100000100000200100000100202020,
#GOGOEND
1122112101121111,
2011202210102210,
1021212022112012,
1010221012102011,
2210221020212111,
2011202210102210,
1021212022112012,
1010221012102011,
202020100000200200100000200000200100200100100000,
1021201020102210,
1122112211221120,
1021201020221020,
1122102210221120,
1202102010221020,
1122112011221020,
1202102010201120,
12121212,
#SCROLL 2
3,
#END

COURSE:Oni
LEVEL:8
BALLOON:
SCOREINIT:860
SCOREDIFF:0
NOTEDESIGNER3:bol
#START
#SCROLL 1.5
500000008000
#SCROLL 1
2222,
#GOGOSTART
1022102010210122,
1011202011102220,
1022102010210122,
1022102050805080,
1022102010210122,
1011202011102220,
1022102010210122,
1012102010222000,
1022102010210122,
1011202011102220,
1022102010210122,
1022102010404000,
1022102010210122,
1011202011102220,
100000200200100000200000100000200100000100101010,
#GOGOEND
1011201202012222,
1102102010221020,
1102102012021020,
1102102010221020,
1102102012022110,
1121202010210120,
1021012010210220,
1021022010221020,
101010100000200200100200000000200200100000200000,
1110220102102010,
0110201210102020,
1102102201201000,
1102102201201000,
1110220102102010,
0110201210102022,
1202102201201000,
5000000080002222,
100000000000100000200000100000200100000000202020,
1020201202021020,
1000102010210020,
1021202120222220,
1000102010210020,
202020200000200000100200000200000200200200200000,
1000102010210020,
1021202120202222,
1000102010210120,
1000102010210120,
1110102010210120,
1110102010210120,
1021012010210120,
1021012010210120,
1022102211221122,
#SCROLL 2
50008000
#SCROLL 1
10102222,
#GOGOSTART
1012102210210122,
1022102012102120,
1012102210210122,
1022102012104000,
1012102210210122,
1022102012102120,
1012102210210122,
1022102010222000,
1022102010210122,
1022102012104011,
1022102010210122,
1022102010404012,
1022102010210122,
1022102012104011,
100000200200100000200000100000200100000100101010,
#GOGOEND
1011201202012222,
1102102010221020,
1102102012021020,
1102102010221020,
1102102012022110,
1121202010210120,
1021012010210220,
1021022010221020,
101010100000200200100200000000200200100000200000,
1110220102102010,
0110201210102020,
1102102201201000,
1102102201201000,
1110220102102010,
0110201210102022,
1202102201201000,
1002020022202222,
1,
#END

COURSE:Hard
LEVEL:5
BALLOON:
SCOREINIT:1540
SCOREDIFF:0
NOTEDESIGNER2:申しコミ
#START
0011102010102000,
#GOGOSTART
2000201020120010,
1011101020102010,
2000201010120010,
21212010,
2000201020120010,
1011101020102010,
2000201020120010,
21211020,
2000201020120010,
1011101020102010,
2000201010120010,
21212010,
2000201020120010,
1011101020102010,
2000201020120010,
#GOGOEND
21212010,
11221021,
10211210,
11212021,
10211020,
21112011,
21121120,
11201121,
2220201020002010,
12212120,
21212021,
22121120,
21212021,
20212120,
21212020,
12101121,
21212020,
1000201010120010,
12121212,
1000201010120010,
12121212,
1000201010120010,
12121212,
1000201010120010,
12121212,
1000201010120010,
1000201010120010,
1000201010120010,
1000201010120010,
1012001010120010,
1012001010120010,
15000000,
8000000010102220,
#GOGOSTART
2000201020120010,
1011101020102010,
2000201010120010,
21212010,
2000201020120010,
1011101020102010,
2000201020120010,
21211020,
2000201020120010,
1011101020102010,
2000201010120010,
21212010,
2000201020120010,
1011101020102010,
2000201020120010,
#GOGOEND
21212010,
11221121,
10211221,
11212121,
11211020,
21112111,
21112120,
11211121,
2220201020102010,
22212121,
21212021,
22121120,
21212121,
20212121,
21212020,
12101121,
21212020,
3,
#END

COURSE:Normal
LEVEL:4
BALLOON:
SCOREINIT:2690
SCOREDIFF:0
NOTEDESIGNER1:申しコミ
#START
0002,
#GOGOSTART
2000200020020000,
1122,
2000200010020000,
2221,
2000200020020000,
1122,
2000200020020000,
2212,
2000200020020000,
1122,
2000200010020000,
2221,
2000200020020000,
1122,
2000200020020000,
#GOGOEND
2211,
11101020,
1221,
11102020,
1212,
11102010,
2112,
1212,
22202020,
1021,
2222,
1012,
2222,
2022,
2222,
1111,
1122,
1000200010020010,
02101012,
1000200010020010,
10101012,
1000200010020010,
10101012,
1000200010020010,
10101012,
1000200010020010,
1000200010020010,
1000200010020010,
1000200010020010,
1002001010020010,
1002001010020010,
15000000,
80001120,
#GOGOSTART
2000200020020000,
1122,
2000200010020000,
2221,
2000200020020000,
1122,
2000200020020000,
2212,
2000200020020000,
1122,
2000200010020000,
2221,
2000200020020000,
1122,
2000200020020000,
#GOGOEND
2212,
11101020,
1221,
11102020,
1212,
11102010,
2112,
1212,
22202020,
1021,
2222,
1012,
2222,
2022,
2222,
1111,
1122,
3,
#END

COURSE:Easy
LEVEL:3
BALLOON:
SCOREINIT:5000
SCOREDIFF:0
NOTEDESIGNER0:申しコミ
#START
,
#GOGOSTART
22,
1120,
21,
2210,
22,
1120,
22,
2210,
22,
1120,
21,
2210,
22,
1120,
22,
#GOGOEND
2210,
11,
12,
1120,
11,
1120,
21,
11,
2220,
12,
22,
11,
22,
22,
22,
11,
1,
11,
2011,
11,
11,
11,
2110,
11,
2110,
11,
11,
11,
11,
12,
12,
1,
1012,
#GOGOSTART
22,
1120,
21,
2210,
22,
1120,
22,
2210,
22,
1120,
21,
2210,
22,
1120,
22,
#GOGOEND
2210,
11,
12,
1120,
11,
1120,
21,
11,
2220 ,
12,
22,
11,
22,
22,
22,
11,
1,
3,
#END
