TITLE:The World of Our Past
SUBTITLE:--DashyDesu & rainfall
BPM:150
WAVE:world.ogg
OFFSET:-3.201
DEMOSTART:83.20
SCOREMODE:2
PREIMAGE:world.png

COURSE:3
LEVEL:8
BALLOON:
SCOREINIT:
SCOREDIFF:
#START
#BPMCHANGE 150
#SCROLL 0.6
11200000,
0,
11200000,
0,
12200000,
0,
12200000,
0,
11203000,
13,
11203000,
44,
12203000,
13,
12204000,
14,
#SCROLL 1
12101022,
1022102010001010,
12121012,
1010202011102020,
12101022,
1022102010001010,
12121012,
1010202011102222,
1011201011201202,
1011201011201212,
1011201011201202,
1011201011201222,
1011201011201202,
1011201011201212,
1011201011201202,
1011201011201222,
1011201011201202,
1011201011201212,
1011201011201202,
1011201011201222,
1011201011201202,
1011201011201212,
1011201011201202,
1011201011201222,
5,
0,
0,
0,
0,
0,
0,
0008,
1011111010201010,
100000101010100000200000200000000100100000100000,
#GOGOSTART
1011201010112011,
1011201120102011,
1011202010112022,
1010202210112210,
13330444,
0011102211201110,
1021001022111020,
1021001122112210,
1011201010112011,
1011201120102011,
1011202010112022,
1010202210112210,
13330444,
0011102211201110,
1021011022111020,
1021011022112211,
#GOGOEND
#SCROLL 0.8
10014010,
01104010,
10114011,
0000100040000001,
10014010,
01104010,
10114011,
0000100040000011,
10014010,
01104010,
10114011,
0000100040000001,
10014010,
01104010,
10114011,
0000101040000011,
1010201040111022,
2020110120001000,
4011101040101010,
4010111040111110,
1010201040111022,
2020110120221020,
4011101040111110,
400000100000100100100000400000100100100000101010,
#SCROLL 1
#GOGOSTART
1002102212021010,
1122102212011010,
1111222211112222,
1111222211112220,
1002102212021020,
1122102212011010,
1122112211221122,
1122112211221120,
1011201011112010,
1101202012022022,
1111111122222222,
1111111122222220,
1011201111102022,
1110221210112010,
1212121212121212,
1212121212121212,
#END

COURSE:2
LEVEL:7
BALLOON:2
SCOREINIT:
SCOREDIFF:
#START
#BPMCHANGE 150
#SCROLL 0.5
11100000,
0,
11100000,
0,
22200000,
0,
22200000,
0,
31,
41,
3110,
41,
31,
41,
3110,
41,
#SCROLL 1
10101011,
1000100010111010,
10101011,
22,
11111010,
11111010,
1011,
1000200010001111,
1000111000111000,
10121000,
1000222000222000,
1010101010111000,
1011101110111010,
11101011,
10222020,
11202220,
11211020,
11211012,
10221220,
11211220,
1110111011101110,
1000201011102000,
1110101010101011,
1010101011111110,
5,
0,
0,
0,
0,
0008,
10101011,
1001100010011010,
1111,
1011101070008000,
#GOGOSTART
11221020,
10121222,
1000101000100022,
20012212,
01220122,
0122,
1001101010101000,
1001101010101100,
10211020,
1110201010002000,
1000201010102011,
10211121,
31210121,
1112,
1000101010111010,
2020202220000000,
#GOGOEND
#SCROLL 0.6
3043,
0340,
30034030,
0340,
3043,
0340,
30034030,
0340,
3043,
0340,
30034030,
0340,
3043,
0340,
30034030,
0340,
11101110,
22204000,
40014010,
4140,
11101110,
22200000,
44,
44,
#SCROLL 1
#GOGOSTART
10101011,
1010101000111000,
1110111011101110,
1110111011101000,
22222222,
22202000,
2220222022202220,
2220222022202000,
1110111011101110,
1110111011101000,
2220222022202220,
2220222022202000,
1110111011101110,
1110111011101000,
2220222022202220,
2220222022202222,
#END

COURSE:1
LEVEL:4
BALLOON:2
SCOREINIT:
SCOREDIFF:
#START
#BPMCHANGE 150
11100000,
0,
11100000,
0,
22200000,
0,
22200000,
0,
31,
41,
3110,
41,
31,
41,
3110,
41,
1110,
1111,
1110,
22,
11100010,
1011,
1011,
1000200010005858,
10110110,
1110,
10110110,
1110,
1111,
11101000,
2222,
0220,
1210,
1211,
1210,
11101000,
1210,
1211,
1210,
11101000,
5,
0,
0,
0,
0,
0008,
11,
1110,
1111,
1178,
#GOGOSTART
10110020,
1110,
10110110,
1021,
01110111,
0112,
10111010,
22202000,
10110020,
1110,
10110110,
1021,
01110111,
0112,
10111010,
22202000,
#GOGOEND
#SCROLL 0.5
3043,
0340,
30034030,
0340,
3043,
0340,
30034030,
0340,
3043,
0340,
30034030,
0340,
3043,
0340,
30034030,
0340,
1111,
2200,
44,
44,
1111,
2200,
44,
44,
#GOGOSTART
#SCROLL 1
10101011,
1110,
5,
0008,
20202022,
2220,
5,
0008,
10101011,
1110,
5,
0008,
20202022,
2220,
5,
0008,
#END

COURSE:0
LEVEL:3
BALLOON:2
SCOREINIT:
SCOREDIFF:
#START
#BPMCHANGE 150
1,
0,
1,
0,
2,
0,
2,
0,
31,
41,
31,
41,
31,
41,
31,
41,
11,
1110,
1110,
22,
1101,
1011,
11,
1000200010005858,
1011,
1110,
1011,
1110,
2222,
2220,
2222,
0220,
1210,
1210,
1210,
1110,
1210,
1210,
1210,
1110,
5,
0,
0,
0,
0,
0008,
11,
1110,
1111,
1178,
#GOGOSTART
1102,
1110,
1101,
1021,
0101,
1012,
10010010,
22,
10010020,
11,
10010010,
1021,
01010101,
0112,
1011,
22,
#GOGOEND
#SCROLL 0.5
3043,
0340,
3043,
0340,
3043,
0340,
3043,
0340,
3043,
0340,
3043,
0340,
3043,
0340,
3043,
0340,
11,
2,
44,
44,
11,
2,
44,
44,
#GOGOSTART
#SCROLL 1
1111,
1110,
5,
0008,
2222,
2220,
5,
0008,
1111,
1110,
5,
0008,
2222,
2220,
5,
0008,
#END
