TITLE:Dear Stars
SUBTITLE:--DashyDesu
BPM:82
WAVE:stars.ogg
OFFSET:-0.028
MAKER:Dashy
DEMOSTART:59.472
PREIMAGE:stars.png
BGMOVIE:stars.mp4

COURSE:4
LEVEL:9
BALLOON:3,7,13,13,13
SCOREINIT:
SCOREDIFF:
#START
0
#BPMCHANGE 82
122,
11202010,
100000102020101020100200,
1010200010020020,
1022102010001011,
1010202000102011,
1000202210202222,
10211020,
1011,
10220200,
5,
08,
#BPMCHANGE 164.002
2011201121112110,
1011201010112000,
1010201112102000,
1011201010112020,
1111201000112011,
1000201010112022,
1000201000102022,
1011202220112030,
0020303000221111,
1000201110112010,
2011201112102022,
10140414,
0030301110201020,
1011202210112010,
0010201022112011,
1011202011121020,
1011201120221110,
#GOGOSTART
1002102210201120,
1102102012221020,
1021121010221210,
1022201110221111,
1022102211201120,
1120120212221120,
1110201110221110,
2111211122112211,
1021021012221020,
1021021011221020,
1021021012210210,
1020102211221210,
1001201110222210,
1201201211201110,
1011212021204000,
3000202212012210,
#GOGOEND
#BPMCHANGE 82
1011202210112000,
1012021070000080,
#BPMCHANGE 164.002
5000802212221122,
1021027000008010,
2112112021121120,
2021012210102020,
500000000000800000102000000000100000200200100000,
1122201110221010,
1021202210212022,
1102211012221220,
7000000000008022,
10001000200012000000200020201000,
2011202211201120,
1022101022102211,
7008,
7008,
1022102210221010,
2111112111112111,
#GOGOSTART
1011201121012210,
1101221012020110,
1112122011121220,
1022101110212211,
1011201121012210,
1101221012020110,
1112122011121220,
1022101110212211,
2011201121112011,
200200100100200010001000200020001000200000100100,
2011221120122120,
2211201120212210,
1012122011221220,
1102112012221220,
1111222211112222,
1122112212121122,
#GOGOEND
#BPMCHANGE 88
0,
1011201011201020,
100200201020102020100200,
1010200010120020,
1022100010112000,
1110202011201022,
1010201010201122,
1110,
2000200
#BPMCHANGE 82
0,
#BPMCHANGE 76
1010
#BPMCHANGE 70
2020
#BPMCHANGE 64
1020
#BPMCHANGE 57.99999999999999
2020
#BPMCHANGE 53
1020
#BPMCHANGE 47
0000
#BPMCHANGE 41
0000
#BPMCHANGE 35
000
#BPMCHANGE 65
0,
#BPMCHANGE 24
31
#BPMCHANGE 33
21
#BPMCHANGE 43
12
#BPMCHANGE 53
21
#BPMCHANGE 63
21
#BPMCHANGE 73
12
#BPMCHANGE 83
21
#BPMCHANGE 93
12,
#BPMCHANGE 103
11
#BPMCHANGE 112.00000000000001
21
#BPMCHANGE 122
22
#BPMCHANGE 132
12
#BPMCHANGE 142
11
#BPMCHANGE 152
21
#BPMCHANGE 162
21
#BPMCHANGE 172
22,
#END

COURSE:3
LEVEL:9
BALLOON:25,5,7,1,10,13,13
SCOREINIT:
SCOREDIFF:
#START
0
#BPMCHANGE 82
122,
11201000,
100100102020102010100200,
1010200010020020,
1022000010001000,
11220121,
1000202010002222,
10221202,
12201022,
10220200,
7,
08,
#BPMCHANGE 164.002
2011211021112110,
1000201000102011,
1000202000102011,
1011201010112010,
2010222000112211,
1000201020102210,
1011201000112210,
1011201120222030,
0020303000221211,
1011202000102010,
0011201022112022,
1022203000300030,
0030302210221010,
1011201102102010,
1011202102102010,
1202102012021010,
1110221022112210,
#GOGOSTART
1011201110102011,
1011201022012011,
1011201122102011,
1022203022112011,
1011201210222010,
1011221020112020,
33040403,
0030403022112211,
1002102012201022,
1002102011221020,
1122102011221020,
1122201110201020,
1102102012201022,
1022122011111030,
30440040,
3011202210210210,
#GOGOEND
#BPMCHANGE 82
11221022,
11117080,
#BPMCHANGE 164.002
5000801121112110,
1002007000008010,
2012012020120120,
1122022210201020,
50000000800012000000100020002000,
1122207080201020,
1110222011112220,
1021021030004000,
7000000000008022,
10000000100012000000200000001000,
0011202011102020,
1022201022102211,
5008,
5008,
3333,
2110211021212111,
#GOGOSTART
1011201022012011,
1011211022022010,
1011221011012210,
1022201110201020,
1011201011012022,
1012101122020210,
1102102211021011,
2111201121212121,
2011201121102011,
2011201121212011,
2011211021112011,
2011201122112020,
7008,
7008,
60000008,
1111222211221212,
#GOGOEND
#BPMCHANGE 88
0,
11201000,
100022111100,
1010200010010020,
1022000010001000,
1212,
1010202010002222,
11,
1000100
#BPMCHANGE 82
0,
#BPMCHANGE 76
1010
#BPMCHANGE 70
2020
#BPMCHANGE 64
1010
#BPMCHANGE 57.99999999999999
2020
#BPMCHANGE 53
1020
#BPMCHANGE 47
0000
#BPMCHANGE 41
0000
#BPMCHANGE 35
000
#BPMCHANGE 70
0,
#BPMCHANGE 24
3
#BPMCHANGE 33
2
#BPMCHANGE 43
2
#BPMCHANGE 53
1
#BPMCHANGE 63
1
#BPMCHANGE 73
2
#BPMCHANGE 83
2
#BPMCHANGE 93
1,
#BPMCHANGE 103
1
#BPMCHANGE 112.00000000000001
2
#BPMCHANGE 122
2
#BPMCHANGE 132
1
#BPMCHANGE 142
1
#BPMCHANGE 152
2
#BPMCHANGE 162
2
#BPMCHANGE 172
1,
#END

COURSE:2
LEVEL:7
BALLOON:25,5,7,1,10,13,13,10
SCOREINIT:
SCOREDIFF:
#START
0
#BPMCHANGE 82
122,
1210,
100122211100,
1010200010020020,
1022000010001000,
10220101,
1000200010002220,
10210202,
12201022,
10220200,
7,
08,
#BPMCHANGE 164.002
2011101110111000,
10201120,
10220121,
10211021,
1011101000111011,
10210120,
1011101000222020,
11201023,
0000303000222020,
11220101,
01210122,
10230303,
03321210,
1010201110102000,
1010201110102010,
10121011,
1010111011111000,
#GOGOSTART
10211120,
11212020,
11211021,
1000203000102011,
10211220,
1011101020222000,
33040403,
0030403000000011,
1002002010201010,
1002002010201020,
1110102011101020,
1000201110201020,
1001102010201000,
1022202010101030,
30440040,
3011101110101010,
#GOGOEND
#BPMCHANGE 82
11221022,
11117080,
#BPMCHANGE 164.002
5000801111111110,
1002007000008010,
2011001020110010,
1022022010102020,
50820122,
12278112,
11221122,
1002002030004000,
7000000000008022,
20120201,
01221122,
10210121,
5008,
5008,
3333,
40404440,
#GOGOSTART
1000222000102011,
1001001020020020,
1011101010101110,
1000002220201020,
1000201000102011,
1002002010020020,
1011102010111010,
21212222,
21212121,
21212221,
21212121,
21212122,
7008,
7008,
60000008,
1111111111111111,
#GOGOEND
#BPMCHANGE 88
0,
1012,
100022111100,
1000200010010020,
1022000010001000,
1212,
1010202010002220,
11,
1000100
#BPMCHANGE 82
0,
#BPMCHANGE 76
7000
#BPMCHANGE 70
0000
#BPMCHANGE 64
0000
#BPMCHANGE 57.99999999999999
0000
#BPMCHANGE 53
0080
#BPMCHANGE 47
0000
#BPMCHANGE 41
0000
#BPMCHANGE 35
000
#BPMCHANGE 70
0,
#BPMCHANGE 24
58
#BPMCHANGE 33
58
#BPMCHANGE 43
58
#BPMCHANGE 53
58
#BPMCHANGE 63
58
#BPMCHANGE 73
58
#BPMCHANGE 83
58
#BPMCHANGE 93
58,
#BPMCHANGE 103
58
#BPMCHANGE 112.00000000000001
58
#BPMCHANGE 122
58
#BPMCHANGE 132
58
#BPMCHANGE 142
58
#BPMCHANGE 152
58
#BPMCHANGE 162
58
#BPMCHANGE 172
58,
#END

COURSE:1
LEVEL:6
BALLOON:25,5,7,1,10,13,13,10
SCOREINIT:
SCOREDIFF:
#START
0
#BPMCHANGE 82
122,
1210,
100100111100,
1000200010020020,
1002000010001000,
10220101,
10201022,
10011002,
10201022,
10220200,
7,
08,
#BPMCHANGE 164.002
4444,
10210020,
10220020,
10201021,
00110011,
10201120,
10110220,
11201003,
00330222,
10201101,
01010120,
10030303,
03301110,
10211120,
10211120,
10120101,
11111110,
#GOGOSTART
10210120,
10210020,
10210120,
10030021,
10210220,
10210220,
33040403,
03330001,
1002002010001000,
1002002010002000,
11110022,
10211010,
1001002010001000,
1002002010000030,
30440040,
3000100010010010,
#BPMCHANGE 82
10021020,
11117080,
#BPMCHANGE 164.002
5000801010101010,
1002007000008010,
2001001020010010,
1002002010102000,
50820120,
12278002,
10221022,
1002002030004000,
7008,
20120201,
01201120,
10210101,
5008,
5008,
3333,
40404440,
#GOGOSTART
10220120,
1001001020020020,
10111011,
10022220,
10210120,
1002002010020020,
10111011,
20202022,
20212021,
20212220,
20212021,
20212022,
7008,
7008,
6,
00000008,
#GOGOEND
#BPMCHANGE 88
0,
1012,
100022100100,
1000000010010020,
1022000010001000,
1012,
10201022,
11,
1000100
#BPMCHANGE 82
0,
#BPMCHANGE 76
7000
#BPMCHANGE 70
0000
#BPMCHANGE 64
0000
#BPMCHANGE 57.99999999999999
0000
#BPMCHANGE 53
0080
#BPMCHANGE 47
0000
#BPMCHANGE 41
0000
#BPMCHANGE 35
000
#BPMCHANGE 70
0,
#BPMCHANGE 24
58
#BPMCHANGE 33
58
#BPMCHANGE 43
58
#BPMCHANGE 53
58
#BPMCHANGE 63
58
#BPMCHANGE 73
58
#BPMCHANGE 83
58
#BPMCHANGE 93
58,
#BPMCHANGE 103
58
#BPMCHANGE 112.00000000000001
58
#BPMCHANGE 122
58
#BPMCHANGE 132
58
#BPMCHANGE 142
58
#BPMCHANGE 152
58
#BPMCHANGE 162
58
#BPMCHANGE 172
58,
#END

COURSE:0
LEVEL:5
BALLOON:25,5,7,1,10,13,13,10
SCOREINIT:
SCOREDIFF:
#START
0
#BPMCHANGE 82
122,
11,
1110,
1212,
1011,
1212,
1212,
11,
1210,
10220200,
7,
08,
#BPMCHANGE 164.002
4444,
10010020,
10020020,
1212,
10110000,
10020020,
10020022,
10101003,
00330020,
10200101,
01010100,
10030303,
03301010,
10010201,
01010020,
10220200,
20220010,
#GOGOSTART
1212,
10010020,
1212,
10030020,
10010020,
10010000,
30040403,
03030000,
10010000,
10010000,
20020000,
40040000,
1011,
11,
30040040,
3111,
#GOGOEND
#BPMCHANGE 82
1012,
1078,
#BPMCHANGE 164.002
5811,
1002007000008000,
20012001,
10021020,
50820020,
10278000,
1212,
1234,
7008,
20020201,
01001020,
10010101,
5008,
5008,
3333,
40404440,
#GOGOSTART
10200120,
1222,
1011,
1022,
10010010,
1210,
11,
2220,
4444,
4444,
4444,
4444,
7008,
7008,
6,
00000008,
#GOGOEND
#BPMCHANGE 88
0,
1,
11,
1,
1011,
1,
11,
1,
1000000
#BPMCHANGE 82
0,
#BPMCHANGE 76
7000
#BPMCHANGE 70
0000
#BPMCHANGE 64
0000
#BPMCHANGE 57.99999999999999
0000
#BPMCHANGE 53
0080
#BPMCHANGE 47
0000
#BPMCHANGE 41
0000
#BPMCHANGE 35
000
#BPMCHANGE 70
0,
#BPMCHANGE 24
58
#BPMCHANGE 33
58
#BPMCHANGE 43
58
#BPMCHANGE 53
58
#BPMCHANGE 63
58
#BPMCHANGE 73
58
#BPMCHANGE 83
58
#BPMCHANGE 93
58,
#BPMCHANGE 103
58
#BPMCHANGE 112.00000000000001
58
#BPMCHANGE 122
58
#BPMCHANGE 132
58
#BPMCHANGE 142
58
#BPMCHANGE 152
58
#BPMCHANGE 162
58
#BPMCHANGE 172
58,
#END
