// ===== Made using 0AuBSQ's Dan Chart Maker =====
TITLE:九段
BPM:180
WAVE:Summer Overload!.ogg
DEMOSTART:53.35
SCOREMODE:2

COURSE:Dan
LEVEL:10
BPM:180
BALLOON:2,4,10,120,30,7
EXAM1:g,100,100,m
EXAM2:jg,203,130,l
EXAM3:jb,13,7,l
DANTICK:5
DANTICKCOLOR:#6700ff
#START
#NEXTSONG Summer Overload!,Akako Hinami,,1.ogg,350,80,9,3
#BPMCHANGE 180
#MEASURE 4/4
#SCROLL 1.0
#BARLINEON
#DELAY 0.017
EXAM4:r,4,6,m 1010221010102210,
1011201010112010,
1010211010102110,
100100100100100200200000700000800000201000200200,
1020121010201210,
1020102010201210,
1020121010201210,
1020102010201210,
1020121010201210,
1020102010201210,
1020121010201210,
1020102010201210,
2010212020102120,
2010201020102120,
22222222,
2222222222222222,
#SCROLL 0.75
11112022,
1001001001002001,
10220010,
11220210,
11112022,
1001001001002001,
10012002,
20210020,
#SCROLL 1
31210122,
20210210,
20120212,
11220210,
10210122,
20210210,
20120212,
11220210,
30211021,
10211021,
30211021,
10211021,
2110211021102110,
2110211021102110,
12222222,
10
#SCROLL 0.88
2
#SCROLL 0.9
2
#SCROLL 0.92
2
#SCROLL 0.94
2
#SCROLL 0.96
2
#SCROLL 0.98
2
#SCROLL 1
20104022,
#GOGOSTART
1010211010112010,
2011202010221210,
2011202010212010,
2011202010212210,
1010211010112010,
2011202010221210,
2011202010112020,
1011201022121012,
1120112011201120,
1120112110201121,
1220122012201220,
1220122110201221,
1120112011201120,
1122012011220120,
2210221022102210,
1122122212121122,
#GOGOEND
1010202210102022,
1011211212102011,
1010202210102022,
1011202010112020,
2010201120102011,
2011212120102000,
32121212,
1222222222222222,
#SCROLL 0.75
31210122,
20210210,
20120212,
11220210,
10210122,
20210210,
20120212,
11220210,
#SCROLL 1
4001201020012010,
2001201020012010,
4001201020012010,
2001201020012010,
2110211021102110,
2110211021102110,
12222222,
1121221220104022,
#GOGOSTART
1010211010112010,
2011202010221210,
2011202010212010,
2011202010212210,
1010211010112010,
2011202010221210,
2011202010112020,
1011201022121012,
1120112011201120,
1120112110201121,
1220122012201220,
1220122110201221,
2120112021201120,
1220112012201120,
2210112012102120,
1122121212221122,
#GOGOEND
12121212,
12121212,
12121212,
12121211,
12121212,
12121212,
12121212,
1111122070000080,
3222,
2222,
22222222,
2222222222222222,
1,
,
#NEXTSONG White Heart,9C feat. Cusi,,2.ogg,350,80,9,3
#BPMCHANGE 95
#MEASURE 4/4
#SCROLL 1.0
#BARLINEON
#DELAY 0.01
EXAM4:r,120,160,m 20112011,
20112011,
20022212,
10000011,
20112011,
20112011,
2000002210001122,
10000211,
20112011,
20112011,
20022212,
10000011,
20112011,
20220012,
1221122112211221,
122112211221122
#SCROLL 2
3,
#SCROLL 1
,
#SCROLL 1.25
1002102210021022,
1002102210021122,
1002102210021022,
1002102211221220,
1010200110102001,
1010200110102001,
1010200111102001,
111020110
#SCROLL 0.75
7000080,
#SCROLL 1
#GOGOSTART
1010200110102001,
1010201112102001,
1010200110102001,
1010201212102012,
1221122112211221,
1221122112211221,
1221122112211221,
1221122112212212,
#SCROLL 1.25
10222020102220201022202010222020,
10212020102120201021202010212020,
10222020102220101022202010222010,
10212020102120101021202010201020,
#GOGOEND
#SCROLL 1
9,
#BARLINEOFF
,
,
0008,
#BARLINEON
#BPMCHANGE 190
1110201110201120,
#MEASURE 3/4
111020111020,
#BPMCHANGE 23.75
#MEASURE 1/32
#SCROLL 4
,
#GOGOSTART
#SCROLL 1
#BARLINEOFF
#BPMCHANGE 190
#MEASURE 4/4
1010201000212120,
1210000010000010,
1011111222210002,
2222210020202020,
110110110110110011001100,
200120012001200120012001,
1110201000201110,
1110201000211110,
1010201000212120,
1012221012221010,
1011111222210002,
2222210020202020,
110110110110110011001100,
200120012001200120012001,
1110201000201110,
1110201000201110,
#BARLINEON
110110110110110011001200,
120012001200120012001200,
1110201110212120,
2210000010000010,
2222221002022222,
2100202222221002,
1110201110201000,
1110201000201110,
100120012001200120012001,
200000002000001000000000000200000100000200200200,
200200200100100000100000100000100000001000000000,
100000100000200000200000200100100101010100100100,
2011100111101110,
100100100000100000100000202000002020000020200000,
200010002000100020100000000000100000101000001010,
0030002120102117,
#GOGOEND
#MEASURE 1/24
#SCROLL 1.1
,
#SCROLL 0.8
,
#SCROLL 0.7
,
#SCROLL 1.1
,
#SCROLL 1.4
,
#SCROLL 1.6
,
#SCROLL 1.1
,
#SCROLL 1.8
,
#SCROLL 2.4
,
#SCROLL 1.7
,
#SCROLL 2.8
,
#SCROLL 2.1
,
#SCROLL 2
,
#SCROLL 1.5
,
#SCROLL 4.6
,
#SCROLL 7.2
,
#SCROLL 1.3
,
#SCROLL 2.1
,
#SCROLL 2.4
,
#SCROLL 2.2
,
#SCROLL 3.8
,
#SCROLL 4.7
,
#SCROLL 5.6
,
#SCROLL 6.4
,
#SCROLL 4.6
,
#SCROLL 5.1
,
#SCROLL 7.8
,
#SCROLL 9.6
,
#SCROLL 5.6
,
#SCROLL 4.2
,
#SCROLL 1
,
#SCROLL 2.5
,
#SCROLL 6.6
,
#SCROLL 7.8
,
#SCROLL 5.2
,
#SCROLL 2.1
,
#SCROLL 6.1
,
#SCROLL 5.4
,
#SCROLL 4.8
,
#SCROLL 4.2
,
#SCROLL 3.8
,
#SCROLL 1.8
,
#SCROLL 2.8
,
#SCROLL 5.2
,
#SCROLL 6.8
,
#SCROLL 6
,
#SCROLL 5
,
#SCROLL 8
8,
#SCROLL 2
,
,
#NEXTSONG Alonebirthday,Taichenko,,3.ogg,350,80,10,4
#BPMCHANGE 165
#MEASURE 4/4
#SCROLL 1.0
#BARLINEON
EXAM4:r,7,7,m 1011201020102010,
0000000000000012,
1011201020201020,
,
1011201020102010,
0000000000000021,
2011201020201020,
00007008,
3011201120102010,
0000100020001012,
1011201020201020,
0121,
1011201120102010,
0000100020001021,
2011201020201020,
0000100120102022,
1011201212102011,
2110201212102012,
1011201212102011,
2110201212102012,
1110102212101022,
1210102212101020,
1110102211111111,
102102122210
#SCROLL 1.5
4000,
#SCROLL 1
#GOGOSTART
200000100000202020100100200000200100200000100000,
200000100100202020100100200100100000200000200100,
100100200200202020100100200200100100200200100100,
2112212111112222,
200000100000202020100100200000200100200000100000,
200000100100202020100100200100100000200000200100,
100100202020100000200000000100200100200100100100,
2012201120201011,
200000100000202020100100200000200100200000100000,
200000100100202020100100200100100000200000200100,
100100200200202020100100200200100100200200100100,
2112212111112222,
200000100000202020100100200000200100200000100000,
200000100100202020100100200100100000200000200100,
100100202020100000200000000100200100200100100100,
2012201120120120,
#GOGOEND
33,
33,
33,
33,
1210101212101011,
2110101212101011,
2110101212101011,
2110101212101011,
2120102121201021,
2110102121201021,
2110102121201021,
2110102121201021,
22222222,
22222222,
2222222222222222,
222222222222
#SCROLL 0.5
2000,
#SCROLL 1
2011201020002010,
0010101120101010,
1000201120101010,
0121,
1011201020001020,
01022121,
2022101020211010,
01102000,
2011201020001020,
01022121,
2010201120101020,
01122112,
1011201020101020,
01022121,
2022101020200010,
0010201020102122,
#GOGOSTART
2011201120102010,
1110101120102011,
2110201120121010,
1210101121101022,
1011201020101020,
1110102020102011,
2022101020211011,
2110101212101022,
2011201020101020,
1110102020102011,
2010201120101020,
1210102020101022,
1011201020101020,
1210102020102011,
2022101020201010,
1210201120102122,
#GOGOEND
2,
,
2,
22,
2222,
2222,
22222222,
2222222111112012,
#GOGOSTART
200000100000202020100100200000200100200000100000,
2211222111112122,
100000100000202020100100200000100100200100200000,
2111211121112111,
200000100000202020100100200000200100200000100000,
2211222122112122,
200000100000202020100100200000100100200100200100,
2111211121112121,
200000100000202020100100200000200100200000100000,
2211222111112122,
100000100000202020100100200000100100200100200000,
2111211121112111,
200000100000202020100100200000200100200000200200,
100000000100000000100000200000101010200000100200,
200200100100202020100100200100100100200100200100,
2111211121112121,
#GOGOEND
#MEASURE 1/4
101010101010,
#GOGOSTART
#MEASURE 4/4
1011201020102010,
0000000000000012,
#GOGOEND
1011201020201020,
,
1011201020102010,
0000000000000021,
2011201020201020,
0
#SCROLL 0.90
200
#SCROLL 0.81
200
#SCROLL 0.73
200
#SCROLL 0.66
200
#SCROLL 0.60
200,
#SCROLL 0.54
2,
,
#END
