TITLE:CITYSCAPE
SUBTITLE:--Makotora
WAVE:CITYSCAPE.ogg
BPM:135
OFFSET:-0.224
DEMOSTART:71.334
MAKER:Makotora, bol

COURSE:Edit
LEVEL:9
SCOREINIT:490
SCOREDIFF:120
BALLOON:12,12
#START
3001201010012011,
1001201010012012,
1001201010012011,
1001201010012012,
1001221010012211,
1001221010012212,
1001221010012211,
7008,
#GOGOSTART
3001201011012011,
1001201011012012,
1001201011012011,
1022102010221020,
3001221011012211,
1001221011012212,
1001221011012211,
1022102010221020,
#GOGOEND
#BARLINEOFF
#SCROLL 0.75
32020122,
10221020,
12020122,
10221122,
12020202,
11221020,
10000202,
11221212,
#BARLINEON
#SCROLL 1
3001201010012011,
10221020,
1001201010012012,
10221122,
1001201010012011,
11221020,
1001201010012012,
11221122,
#SCROLL 1.15
3011201040112010,
3012201040122020,
#SCROLL 1.3
3011201040122010,
300000100200200000100000400000100100200000202020,
#SCROLL 1.45
2121212121212121,
2211221122112211,
#SCROLL 1.6
202020100100202020100100202020100100202020100100,
7008,
#SCROLL 1
#GOGOSTART
3022102010212012,
1202102011221020,
1022102010212012,
1202102011221122,
1022102010212012,
1010202011102220,
1022102011201022,
100200200200100200200200100200200200101010100000,
1122112212212211,
1222121212221212,
1121221212122121,
1122112212212211,
1221122112211222,
1221221112122121,
1122112211221212,
100200200200100200200200100200200200101010100000,
#GOGOEND
3001221011012211,
1001221011012212,
1001221011012211,
1022102010221020,
3001221010012211,
1001221010012212,
1001201010012010,
1222122212222120,
3,
#END

COURSE:Oni
LEVEL:6
BALLOON:12,12
SCOREINIT:600
SCOREDIFF:150
#START
30211021,
1000201010002011,
10211021,
1000201010002011,
10211021,
1000201010002011,
10211021,
7008,
#GOGOSTART
3000201010002011,
1000201010002011,
1000201010002011,
12120212,
3000201010002011,
1000201010002011,
1000201010002011,
12120212,
#GOGOEND
#BARLINEOFF
#SCROLL 0.75
32020122,
10221020,
12020122,
10201120,
12020202,
11221020,
10000202,
11221210,
#BARLINEON
#SCROLL 1
3000201010002011,
10221020,
1000201010002011,
10221122,
1000201010002011,
11221020,
1000201010200022,
11201220,
3001201040012010,
3001201040022020,
3001201040012010,
3001201040002022,
22222222,
2220222022202220,
7008,
3044,
#GOGOSTART
32021221,
1001202011202010,
12021221,
1001201210012012,
12021221,
1110222010112000,
12021202,
1120101022202000,
1120112012201000,
1120100012201000,
1120222012201000,
1022100022102000,
2012201220122000,
1011101020212000,
1120112011201210,
1011101020212000,
#GOGOEND
3001201010012011,
1001201010012011,
1001201010012011,
12120212,
3020001000200011,
1020001000200011,
1020001000200011,
1011101020202000,
3,
#END

COURSE:Hard
LEVEL:6
SCOREINIT:600
SCOREDIFF:150
BALLOON:12,12
#START
30200021,
1000200000002011,
10200021,
1000200000002011,
10201021,
1000200010002011,
10201021,
7008,
#GOGOSTART
3000201010002011,
1000201010002011,
1000201010002011,
12121212,
3000201010002011,
1000201010002011,
1000201010002011,
12121212,
#GOGOEND
32020120,
10221020,
12020120,
10201120,
12020202,
10221020,
10000202,
11201210,
3000201010002011,
10221020,
1000201010002011,
10221122,
1000201010002011,
10221020,
1000201010002011,
11201120,
30214021,
30214022,
30214021,
3000201040002022,
22222222,
2220222022202220,
7008,
3,
#GOGOSTART
32121221,
1000102010222020,
12121221,
1000102010111010,
12121221,
11221020,
12121210,
12101210,
1110111011101110,
12101210,
2220222022202220,
12101210,
1110222011102220,
12101210,
2220111022201110,
12101210,
#GOGOEND
3000201010002011,
1000201010002011,
1000201010002011,
12121212,
30201021,
1000200010002011,
1202,
12101210,
3,
#END

COURSE:Normal
LEVEL:5
SCOREINIT:820
SCOREDIFF:205
BALLOON:12,12
#START
3202,
0202,
1202,
0202,
1202,
1202,
1202,
7008,
#GOGOSTART
3212,
10201021,
1212,
1122,
3212,
10201021,
1212,
1122,
#GOGOEND
3,
10111010,
1,
20222020,
1,
10111010,
1,
22202220,
3202,
10111010,
1202,
20222020,
1202,
10111010,
1202,
22202220,
3242,
30204022,
3242,
30204022,
2222,
22202220,
7008,
3,
#GOGOSTART
30101011,
10221020,
10101011,
10221020,
10101011,
10221020,
1111,
1122,
11101110,
11,
22202220,
22,
11102220,
12,
22201110,
21,
#GOGOEND
3212,
10201021,
1212,
1122,
3202,
1202,
1202,
1122,
3,
#END

COURSE:Easy
LEVEL:3
SCOREINIT:600
SCOREDIFF:150
BALLOON:12,12
#START
3202,
0202,
0202,
0202,
1202,
0202,
1202,
7008,
#GOGOSTART
3212,
1212,
1212,
1122,
3212,
1212,
1212,
1122,
#GOGOEND
3,
1011,
1,
2022,
1,
1011,
1,
2220,
3202,
1011,
1202,
2022,
1202,
1011,
1202,
2220,
3242,
3242,
3242,
3242,
22,
2222,
7008,
3,
#GOGOSTART
3111,
1212,
1111,
1212,
1111,
1212,
11,
1122,
1110,
11,
2220,
22,
1122,
12,
2211,
21,
#GOGOEND
3212,
1212,
1212,
1122,
3202,
0202,
1202,
1122,
3,
#END
