TITLE:Summer Overload!
SUBTITLE:--Akako Hinami
BPM:180
WAVE:Summer Overload!.ogg
OFFSET:-0.017
DEMOSTART:53.35
SCOREMODE:2
PREIMAGE:Summer Overload!.png

COURSE:Oni
LEVEL:9
BALLOON:2,4
SCOREINIT:830
SCOREDIFF:0
#START
1010221010102210,
1011201010112010,
1010211010102110,
100100100100100200200000700000800000201000200200,
1020121010201210,
1020102010201210,
1020121010201210,
1020102010201210,
1020121010201210,
1020102010201210,
1020121010201210,
1020102010201210,
2010212020102120,
2010201020102120,
22222222,
2222222222222222,
#SCROLL 0.75
11112022,
1001001001002001,
10220010,
11220210,
11112022,
1001001001002001,
10012002,
20210020,
#SCROLL 1
31210122,
20210210,
20120212,
11220210,
10210122,
20210210,
20120212,
11220210,
30211021,
10211021,
30211021,
10211021,
2110211021102110,
2110211021102110,
12222222,
10
#SCROLL 0.88
2
#SCROLL 0.9
2
#SCROLL 0.92
2
#SCROLL 0.94
2
#SCROLL 0.96
2
#SCROLL 0.98
2
#SCROLL 1
20104022,
#GOGOSTART
1010211010112010,
2011202010221210,
2011202010212010,
2011202010212210,
1010211010112010,
2011202010221210,
2011202010112020,
1011201022121012,
1120112011201120,
1120112110201121,
1220122012201220,
1220122110201221,
1120112011201120,
1122012011220120,
2210221022102210,
1122122212121122,
#GOGOEND
1010202210102022,
1011211212102011,
1010202210102022,
1011202010112020,
2010201120102011,
2011212120102000,
32121212,
1222222222222222,
#SCROLL 0.75
31210122,
20210210,
20120212,
11220210,
10210122,
20210210,
20120212,
11220210,
#SCROLL 1
4001201020012010,
2001201020012010,
4001201020012010,
2001201020012010,
2110211021102110,
2110211021102110,
12222222,
1121221220104022,
#GOGOSTART
1010211010112010,
2011202010221210,
2011202010212010,
2011202010212210,
1010211010112010,
2011202010221210,
2011202010112020,
1011201022121012,
1120112011201120,
1120112110201121,
1220122012201220,
1220122110201221,
2120112021201120,
1220112012201120,
2210112012102120,
1122121212221122,
#GOGOEND
12121212,
12121212,
12121212,
12121211,
12121212,
12121212,
12121212,
1111122070000080,
3222,
2222,
22222222,
2222222222222222,
1,
#END

COURSE:Hard
LEVEL:7
BALLOON:3,4
SCOREINIT:1360
SCOREDIFF:0
#START
12101210,
12101210,
12101210,
50087080,
12101210,
12121210,
12101210,
12121210,
12101210,
12121210,
12101210,
12121210,
2222,
2222,
22222222,
2220222022202220,
10002022,
0001,
20220020,
11110220,
10002022,
0001,
21,
20250080,
30210111,
20220210,
20210210,
11220210,
10210111,
20220210,
20210210,
11220210,
30211021,
10211021,
30211021,
10211021,
3111,
3111,
31111110,
50082121,
#GOGOSTART
30210111,
20220210,
20210210,
11220210,
10210111,
20220210,
22210210,
11220210,
12121212,
1001001001001000,
11112222,
12112120,
12121212,
2002002002002002,
22110122,
10210210,
#GOGOEND
1010222010102220,
1011101110102000,
1022201010222010,
1011101010111010,
22202220,
22222220,
32121212,
50000008,
30210122,
20210210,
20120210,
11220210,
10210122,
20210210,
20120210,
11220210,
30211021,
10211021,
30211021,
10211021,
3111,
3111,
31111110,
50082121,
#GOGOSTART
30210111,
20220210,
20210210,
11220210,
10210111,
20220210,
22210210,
11220210,
12121212,
1001001001001000,
11112222,
12112120,
12121212,
2002002002002002,
22110122,
10210210,
#GOGOEND
11201120,
11201120,
11201120,
11201011,
11201120,
11201120,
11201120,
50087008,
3222,
2222,
22222222,
2220222022202220,
3,
#END

COURSE:Normal
LEVEL:5
BALLOON:3,2,4,2
SCOREINIT:1930
SCOREDIFF:0
#START
1212,
1212,
1212,
50087080,
1212,
1112,
1212,
1112,
1212,
1112,
1212,
1112,
2222,
2222,
22202220,
5008,
10002022,
0001,
20220020,
10110220,
10002022,
0001,
21,
20220000,
30110110,
20220220,
20110110,
10220220,
10110110,
20220220,
20110110,
10220220,
3212,
1212,
3212,
1212,
3111,
3111,
30101110,
50087080,
#GOGOSTART
30201120,
10210210,
10201120,
10210210,
10201120,
10210210,
10201120,
10210210,
11101110,
5008,
22202220,
5008,
11101110,
5008,
22202220,
5008,
#GOGOEND
11101110,
22222000,
11101110,
22222000,
11101110,
22222000,
32020202,
5008,
30110110,
20220220,
20110110,
10220220,
10110110,
20220220,
20110110,
10220220,
3212,
1212,
3212,
1212,
3111,
3111,
30101110,
50087080,
#GOGOSTART
30201120,
10210210,
10201120,
10210210,
10201120,
10210210,
10201120,
10210210,
11101110,
5008,
22202220,
5008,
11101110,
5008,
22202220,
5008,
#GOGOEND
1212,
1212,
1212,
10201011,
1212,
1212,
1212,
50087008,
3222,
2222,
22202220,
5008,
3,
#END

COURSE:Easy
LEVEL:4
BALLOON:
SCOREINIT:3230
SCOREDIFF:0
#START
1202,
0202,
0202,
,
1202,
0212,
1202,
0212,
1202,
0212,
1202,
0212,
22,
22,
2222,
5008,
10000001,
0001,
2,
2,
10000001,
0001,
2,
2,
3222,
2222,
2222,
2222,
2222,
2222,
2222,
2222,
3202,
0202,
3202,
0202,
3,
3,
3111,
58,
#GOGOSTART
3212,
1110,
2121,
2220,
1212,
1110,
2121,
2220,
1110,
5008,
2220,
5008,
1110,
5008,
2220,
5008,
#GOGOEND
1111,
2220,
1111,
2220,
1111,
2220,
32020202,
5008,
30010000,
20020000,
20010000,
10020000,
10010000,
20020000,
20010000,
10020000,
3202,
0202,
3202,
0202,
3,
3,
3111,
58,
#GOGOSTART
3212,
1110,
2121,
2220,
1212,
1110,
2121,
2220,
1110,
5008,
2220,
5008,
1110,
5008,
2220,
5008,
#GOGOEND
1202,
0202,
0202,
0201,
1202,
0202,
0202,
58,
3220,
2220,
2222,
5008,
3,
#END
