TITLE:Seismic Shake
SUBTITLE:--DeBisco
WAVE:Seismic Shake.ogg
PREIMAGE:Seismic Shake.png
BPM:155
OFFSET:-0.193
DEMOSTART:87.870

COURSE:Oni
LEVEL:10
BALLOON:
SCOREINIT:
SCOREDIFF:0
#START
#MEASURE 4/4
1011202010201022,
1011201020102010,
2011201020102010,
2011201020
#SCROLL 3
204000,
#BPMCHANGE 310
#MEASURE 4/4
#SCROLL 1
20112122,
10112122,
#SCROLL 1.5
40
#SCROLL 1
112122,
10112122,
#SCROLL 1.5
4000
#SCROLL 1
111010102010,
#SCROLL 1.5
4000
#SCROLL 1
111010102010,
#SCROLL 1.5
40
#SCROLL 1
11
#SCROLL 1.5
40
#SCROLL 1
11,
#SCROLL 1.5
4
#SCROLL 1
222,
#SCROLL 1.5
40
#SCROLL 0.75
122121,
10122121,
1000102020102011,
11122121,
10122121,
10122121,
1000102020102011,
11122121,
10122121,
10122121,
1000102020102011,
11122121,
10122121,
10122121,
10122121,
212121212120,
#SCROLL 1.5
40
#SCROLL 0.75
222121,
12222121,
12221212,
10222121,
12222121,
12222121,
12221212,
1000202020101110,
#SCROLL 1.5
40
#SCROLL 0.75
222121,
12222121,
#SCROLL 1.5
4
#SCROLL 0.75
2221212,
10222121,
#SCROLL 1.5
40
#SCROLL 0.75
222121,
#SCROLL 1.5
40
#SCROLL 0.75
222121,
#SCROLL 1.5
40
#SCROLL 0.75
111010
#SCROLL 1.5
40
#SCROLL 0.75
111010,
212121212120,
#BPMCHANGE 155
#SCROLL 3
4,
00000004,
4,
00044040,
4,
00000004,
4,
000000000400404040404040,
#BPMCHANGE 310
#SCROLL 1.5
40
#SCROLL 0.6
202222,
20202222,
20202222,
20202222,
20202222,
02202202,
022220
#SCROLL 1.5
30,
44,
40
#SCROLL 0.75
222022,
02202022,
#SCROLL 1.5
40
#SCROLL 0.75
222022,
02222222,
#SCROLL 1.5
40
#SCROLL 0.75
220222,
#SCROLL 1.5
40
#SCROLL 0.75
220222,
#SCROLL 1.5
4111,
#SCROLL 1.43
2
#SCROLL 1.36
1
#SCROLL 1.3
2
#SCROLL 1.24
1
#SCROLL 1.18
2
#SCROLL 1.12
1
#SCROLL 1.07
2
#SCROLL 1.02
1
#SCROLL 0.97
2
#SCROLL 0.92
1
#SCROLL 0.87
20,
#SCROLL 0.75
11,
22222000,
#SCROLL 1
#GOGOSTART
12010201,
02110201,
12010201,
02110201,
12010201,
02110201,
12010201,
0020111010201010,
12010201,
02110201,
12010201,
02110201,
12010201,
02110201,
12010201,
#GOGOEND
212121212120,
#GOGOSTART
12010201,
0020101000200011,
12010201,
0020101000200012,
12010201,
0020101000200011,
12010201,
0020111010201011,
#GOGOEND
12011201,
1020001011200010,
12011201,
1020001110200010,
1020201110202011,
1020201110202011,
12211221,
#SCROLL 0.4
200200100100202020100000,
#SCROLL 1
#GOGOSTART
11211021,
11211021,
12121212,
1110202010002000,
10211021,
11211021,
10211021,
1110202010102010,
11211021,
11211021,
12121212,
1110202010002000,
10211021,
11211021,
1120202011202020,
#GOGOEND
212121212120,
#GOGOSTART
11211021,
11211021,
12121212,
1110202010002000,
10211021,
11211021,
10211021,
1110202010102010,
11211021,
11211021,
12121212,
1110202010002000,
10211021,
11211021,
33333333,
#SCROLL 0.75
#GOGOEND
212121212120,
11,
222220
#SCROLL 1
40,
#SCROLL 4
3,
#END

COURSE:Edit
LEVEL:10
BALLOON:
#START
#MEASURE 4/4
1012102010201012,
1021201020102010,
2021201020102010,
2021201020303000,
#BPMCHANGE 310.000000
#SCROLL 0.750000
20212122,
10212122,
30212122,
10212122,
30212121,
30212121,
30123012,
3344,
30122121,
10122121,
10122121,
22122121,
10122121,
10122121,
10122121,
22122121,
10122121,
10122121,
10122121,
22122121,
10122121,
10122121,
10122121,
212121212120,
30122121,
10122121,
10122121,
22122121,
10122121,
10122121,
10122121,
22122121,
30122121,
10122121,
30122121,
22122121,
30122121,
30122121,
3021201030212010,
212121212120,
#BPMCHANGE 155.000000
#SCROLL 1.500000
3,
00000003,
3,
00033030,
3,
00000003,
3,
000000000300303030303030,
#BPMCHANGE 310.000000
#SCROLL 0.750000
30101212,
10101212,
10101212,
10101212,
10101212,
01201202,
02121040,
33,
30212021,
01202012,
30121021,
01221221,
30210212,
30210212,
4444,
212121212120,
11,
12121000,
#SCROLL 1.000000
#GOGOSTART
12010201,
02120202,
12010201,
02120202,
12010201,
02120202,
12010201,
02121211,
12010201,
02120202,
12010201,
02120202,
12010201,
02120202,
12010201,
#GOGOEND
212121212120,
#GOGOSTART
12010201,
02120202,
12010201,
02120202,
12010201,
02120202,
12010201,
02121211,
#GOGOEND
12021201,
21021201,
21021201,
21021201,
12211221,
12211221,
12211221,
22112210,
#GOGOSTART
21211021,
21211021,
12121212,
11221020,
10212021,
21211021,
20212021,
21221121,
21211021,
21211021,
12121212,
11221020,
10212021,
21211021,
12211221,
#GOGOEND
212121212120,
#GOGOSTART
21211021,
21211021,
12121212,
11221020,
10212021,
21211021,
20212021,
21221121,
21211021,
21211021,
12121212,
11221020,
10212021,
21211021,
44444444,
#GOGOEND
212121212120,
11,
12121040,
#SCROLL 10.000000
3,
#END

COURSE:Hard
LEVEL:9
BALLOON:
#START
#BPMCHANGE 155.000000
11221212,
11212121,
21212121,
21212220,
#BPMCHANGE 310.000000
#SCROLL 0.850000
20112110,
10112120,
20112110,
10112120,
20111020,
20111020,
2121,
2222,
20
#SCROLL 0.750000
121020,
10121020,
10121020,
20121020,
10121020,
10121020,
10121020,
20121020,
10121020,
10121020,
10121020,
20121020,
10121020,
10121020,
10121020,
222222,
20222020,
12222020,
12222202,
20220020,
12222020,
12222020,
12222202,
20220011,
20222020,
12222020,
12222202,
20220020,
12222020,
12222020,
12222222,
222222,
#BPMCHANGE 155.000000
#SCROLL 1.500000
2,
00000002,
2,
00022020,
2,
00000002,
2,
000000000200202020202020,
#BPMCHANGE 310.000000
#SCROLL 0.750000
20202220,
20202220,
20202220,
20202220,
20202220,
20202220,
2221,
22,
20202022,
20202022,
20202022,
20202022,
20202022,
20202022,
2111,
222222,
11,
22222000,
#SCROLL 0.850000
#GOGOSTART
12010201,
02110201,
02010201,
02110201,
02010201,
02110201,
02010201,
02110201,
12010201,
02110201,
02010201,
02110201,
02010201,
02110201,
02010201,
#GOGOEND
222222,
#GOGOSTART
12010201,
02110201,
02010201,
02110201,
02010201,
02110201,
02010201,
02110201,
#GOGOEND
12010201,
02011201,
02010201,
02010201,
02011201,
12011201,
12011201,
#SCROLL 0.750000
2211,
#SCROLL 0.850000
#GOGOSTART
21110011,
21110011,
21112111,
21110011,
21110011,
21110011,
21112111,
21110011,
21110011,
21110011,
21112111,
21110011,
21110011,
21110011,
21112111,
#GOGOEND
222222,
#GOGOSTART
21110011,
21110011,
21112111,
21110011,
21110011,
21110011,
21112111,
21110011,
21110011,
21110011,
21112111,
21110011,
21110011,
21110011,
11111111,
#SCROLL 0.750000
#GOGOEND
222222,
11,
22222040,
#SCROLL 1.500000
3,
#END

COURSE:Normal
LEVEL:7
BALLOON:
#START
#MEASURE 4/4
10020202,
10020202,
10020202,
10020220,
#BPMCHANGE 310.000000
#SCROLL 0.750000
2111,
0112,
2111,
0112,
2002,
2002,
22,
2222,
20110020,
10110020,
10110020,
20110020,
10110020,
10110020,
10110020,
20110020,
10110020,
10110020,
10110020,
20110020,
10110020,
10110020,
10110020,
5,
80110020,
10110020,
10110020,
20110020,
10110020,
10110020,
10110020,
20110020,
10110020,
10110020,
10110020,
20110020,
10110020,
10110020,
10110020,
5,
#BPMCHANGE 155.000000
#SCROLL 1.500000
8,
00000002,
2,
00022020,
2,
00000002,
2,
00025000,
#BPMCHANGE 310.000000
#SCROLL 0.750000
8202,
2202,
2202,
2202,
2202,
2202,
2201,
22,
2202,
2202,
2202,
2202,
2202,
2202,
2111,
5,
81,
2220,
#GOGOSTART
22010201,
02000201,
02010201,
02000201,
02010201,
02000201,
02010201,
02000202,
22010201,
02000201,
02010201,
02000201,
02010201,
02000201,
02010201,
#GOGOEND
5,
#GOGOSTART
82010201,
02000201,
02010201,
02000201,
02010201,
02000201,
02010201,
02000202,
#GOGOEND
22010201,
02010201,
02010201,
02010201,
02010201,
02010201,
02010201,
2211,
#GOGOSTART
20110010,
20110010,
2121,
20110010,
20110010,
20110010,
2121,
20110010,
20110010,
20110010,
2121,
20110010,
20110010,
20110010,
2121,
#GOGOEND
5,
#GOGOSTART
80110010,
20110010,
2121,
20110010,
20110010,
20110010,
2121,
20110010,
20110010,
20110010,
2121,
20110010,
20110010,
20110010,
11101110,
#SCROLL 0.750000
#GOGOEND
5,
81,
2224,
3,
#END

COURSE:Easy
LEVEL:3
BALLOON:
#START
#MEASURE 4/4
1,
1,
1,
10000220,
#BPMCHANGE 310.000000
#SCROLL 0.750000
2,
0002,
2,
0002,
2002,
2002,
22,
22,
2002,
0002,
0002,
2002,
0002,
0002,
0002,
2002,
0002,
0002,
0002,
2002,
0002,
0002,
0002,
5,
8002,
0002,
0002,
2002,
0002,
0002,
0002,
2002,
2,
0002,
2,
0002,
2002,
2002,
22,
5,
#BPMCHANGE 155.000000
#SCROLL 1.500000
8,
00000002,
2,
00022020,
2,
00000002,
2,
00025000,
#BPMCHANGE 310.000000
#SCROLL 0.750000
8202,
0202,
0202,
0202,
0202,
0202,
0202,
22,
2202,
0202,
2202,
0202,
2202,
2202,
2,
5,
81,
22,
#GOGOSTART
22,
22,
22,
22,
22,
22,
22,
22,
22,
22,
22,
22,
22,
22,
22,
#GOGOEND
5,
#GOGOSTART
81,
11,
11,
11,
11,
11,
11,
11,
#GOGOEND
11,
11,
11,
11,
11,
11,
11,
21,
#GOGOSTART
2,
2,
22,
2,
2,
2,
22,
2,
2,
2,
22,
2,
2,
2,
22,
#GOGOEND
5,
#GOGOSTART
8,
2,
22,
2,
2,
2,
22,
2,
2,
2,
22,
2,
2,
2001,
1111,
#SCROLL 0.750000
#GOGOEND
5,
81,
22,
3,
#END
