TITLE:nanja korya ?!
SUBTITLE:--Makotora
WAVE:NanjaKorya.ogg
PREIMAGE:NanjaKorya.jpg
BPM:170
OFFSET:-0
DEMOSTART:82.940
MAKER:Komi

COURSE:Oni
LEVEL:6
BALLOON:21
#START
#MEASURE 3/4
005008,
#MEASURE 4/4
20112011,
2000101020001120,
20112011,
2000101020001120,
50000811,
22112112,
50000811,
2020101020101022,
21212020,
1000200010001120,
21212020,
1000200010002220,
20121021,
20121021,
21112221,
2010201020101110,
21212020,
1000200010001120,
21212020,
1000200010002220,
20121021,
20121021,
21112221,
2010201020101110,
#SCROLL 0.750000
50008012,
2111,
50008012,
2112,
50008012,
2211,
50008012,
2000100020001011,
50008012,
2111,
50008012,
2112,
50008012,
2211,
50008012,
2000100020001011,
#SCROLL 1.000000
20112011,
2000101020001120,
20112011,
2000101020001120,
50000811,
22112112,
50000811,
2020101020101022,
2222,
4000200020002220,
4222,
4000200020002220,
12221222,
12221222,
50000008,
#SCROLL 10.000000
78,
0,
0,
#SCROLL 1.250000
#GOGOSTART
32323232,
32323233,
32323232,
3020302030203011,
12323232,
3020302030201111,
12323232,
#SCROLL 1.000000
#GOGOEND
4,
#SCROLL 0.750000
50008012,
2111,
50008012,
2112,
50008012,
2211,
50008012,
20102011,
#SCROLL 1.000000
1011101010001010,
1011101010001010,
1011101010001010,
1011101010001010,
1011101010001010,
1011101010001010,
1011101010001010,
1011101010102211,
20112011,
2000101020001120,
20112011,
2000101020001120,
50000811,
22112112,
50000811,
2020101020101022,
2,
#END

COURSE:Hard
LEVEL:5
BALLOON:14
#START
#MEASURE 3/4
005008,
#MEASURE 4/4
20112011,
20112012,
20112011,
20112012,
50000811,
20121012,
50000811,
20121012,
21212020,
1210,
01212020,
1212,
20121021,
20121021,
20121021,
20221010,
21212020,
1210,
01212020,
1212,
20121021,
20121021,
20121021,
20221010,
#SCROLL 0.750000
50008012,
2111,
50008012,
2112,
50008012,
2211,
50008012,
2000100020001011,
50008012,
2111,
50008012,
2112,
50008012,
2211,
50008012,
20102011,
#SCROLL 1.000000
20112011,
20112012,
20112011,
20112012,
50000811,
20121012,
50000811,
20121012,
4222,
40202022,
4222,
40202022,
12201220,
12201220,
50000008,
78,
0,
0,
#GOGOSTART
3333,
30303033,
3333,
3000300030003011,
1333,
3000300030001110,
1333,
#GOGOEND
4,
#SCROLL 0.750000
50008012,
2111,
50008012,
2112,
50008012,
2211,
50008012,
20102011,
#SCROLL 1.000000
11111011,
11111011,
11111011,
11111011,
11111011,
11111011,
11111011,
11111121,
20112011,
20112012,
20112011,
20112012,
50000811,
20121012,
50000811,
20121012,
2,
#END

COURSE:Normal
LEVEL:4
BALLOON:5
#START
#MEASURE 3/4
010,
#MEASURE 4/4
2121,
20102022,
2121,
2122,
5081,
1111,
5081,
1111,
1122,
1210,
0122,
1212,
2112,
2112,
2112,
2211,
1122,
1210,
0122,
1212,
2112,
2112,
2112,
2211,
58,
21,
58,
21,
58,
21,
58,
22,
58,
21,
58,
21,
58,
21,
58,
22,
2121,
20102022,
2121,
2122,
5081,
1111,
5081,
1111,
44,
4042,
44,
4042,
1212,
1212,
50000008,
78,
0,
0,
#GOGOSTART
33,
3033,
33,
3033,
13,
30003011,
13,
#GOGOEND
4,
58,
21,
58,
21,
58,
21,
58,
22,
1111,
1111,
1111,
1111,
1111,
1111,
1111,
1112,
2121,
20102022,
2121,
2122,
5081,
1111,
5081,
1111,
2,
#END

COURSE:Easy
LEVEL:3
BALLOON:5
#START
#MEASURE 3/4
058,
#MEASURE 4/4
22,
2022,
22,
2022,
58,
11,
58,
11,
1002,
21,
0002,
21,
22,
22,
11,
12,
1002,
21,
0002,
21,
22,
22,
11,
12,
58,
21,
58,
21,
58,
21,
58,
22,
58,
21,
58,
21,
58,
21,
58,
22,
22,
2022,
22,
2022,
58,
11,
58,
11,
4,
4,
4,
4,
11,
11,
5008,
78,
0,
0,
#GOGOSTART
33,
3033,
33,
3033,
13,
3031,
13,
#GOGOEND
4,
58,
21,
58,
21,
58,
21,
58,
22,
1011,
11,
1011,
11,
1011,
11,
1011,
11,
22,
2022,
22,
2022,
58,
11,
58,
11,
2,
#END
