TITLE:ΣxilƎ
SUBTITLE:--mrcool909090
BPM:320
WAVE:Exile.ogg
OFFSET:-0
DEMOSTART:42
MAKER:Komi & bol

COURSE:Edit
LEVEL:11.7
BALLOON:
SCOREINIT:640
SCOREDIFF:0
#START
#SCROLL 0.75
21112121,
21112121,
21112121,
2010101022202010,
21112121,
21112121,
21112121,
2010101022202010,
#SCROLL 0.85
21112121,
2010101021102010,
21112121,
2010101022202010,
21112121,
2010101021102010,
21112121,
2010101022202010,
#SCROLL 1
21112121,
2010101021102010,
21112121,
2010101022202010,
1110100001100010,
1010101011101010,
,
2020202022202020,
11011211,
#SCROLL 1.5
4
#SCROLL 1
1103010,
11011211,
#SCROLL 1.5
40
#SCROLL 1
10201022201010,
11011211,
#SCROLL 1.5
4
#SCROLL 1
1103010,
11011211,
#SCROLL 1.5
40
#SCROLL 1
10201022112211,
11011211,
#SCROLL 1.5
4
#SCROLL 1
1103010,
11011211,
#SCROLL 1.5
40
#SCROLL 1
10201022201010,
11011211,
#SCROLL 1.5
4
#SCROLL 1
1103010,
21112121,
#SCROLL 1.5
40
#SCROLL 1
10101022112211,
11212211,
#SCROLL 1.5
4
#SCROLL 1
1104020,
11212211,
#SCROLL 1.5
40
#SCROLL 1
10201022202010,
11212211,
#SCROLL 1.5
4
#SCROLL 1
1104020,
11212212,
#SCROLL 1.5
40
#SCROLL 1
20201022112211,
11212211,
#SCROLL 1.5
4
#SCROLL 1
1104020,
11212211,
#SCROLL 1.5
40
#SCROLL 1.
10201022202010,
11212211,
#SCROLL 1.5
4
#SCROLL 1
1104020,
21112121,
#SCROLL 1.5
40
#SCROLL 1
10101022112211,
50000008,
#SCROLL 3
4000
#SCROLL 1
201022205000,
00000812,
#SCROLL 3
40
#SCROLL 1
10201012102010,
50000008,
#SCROLL 3
4000
#SCROLL 1
201022202010,
21112121,
#SCROLL 3
40
#SCROLL 1
10101022212111,
50000008,
#SCROLL 3
4000
#SCROLL 1
201022205000,
00000812,
#SCROLL 3
40
#SCROLL 1
10201012102010,
50000008,
#SCROLL 3
4000
#SCROLL 1
201022202010,
21112121,
#SCROLL 3
40
#SCROLL 1
10101022212111,
50000821,
200100222200200100500000,
00000812,
2010201012102010,
50000008,
2010201022202010,
21112121,
2010101022212111,
50000821,
21202150,
00000812,
2010201012102010,
50000008,
2010201022202010,
21112111,
20101010
#SCROLL 1.1
2
#SCROLL 1.21
2
#SCROLL 1.33
2
#SCROLL 1.47
2
#SCROLL 1.61
20
#SCROLL 1.77
10,
#SCROLL 0.5
21212121,
2020101022201010,
22211102,
0020100011102000,
21212121,
2020101022201010,
22112211,
21212122,
#SCROLL 0.75
21212121,
2020101022201010,
22211102,
1020100011102000,
2110201021102010,
200100200000100000100000101010100000100000100000,
22112211,
200000100000200000100000100200100201002010200000,
#SCROLL 1
#GOGOSTART
1111200021112000,
1111100021111000,
1111200021112000,
1111100021111000,
1111200021112000,
1111100021111000,
1111200021112000,
1111100021111000,
#GOGOEND
100200100200102010201020,
1212112211221122,
#GOGOSTART
1111200021112000,
1111100021111000,
1111200021112000,
1111100021111000,
1111200021112000,
1111100021112010,
1221105000000000,
0000008020101022,
15000008,
10212111,
21211212,
200500000800102010100000,
11221222,
12221221,
#GOGOEND
100200100200102010201020,
1212112211221122,
#GOGOSTART
22112211,
21122112,
25000008,
211211211221,
112112122122,
200010001000100010002000200100200000200010002000,
15000000,
00000008,
1111200021112000,
1111100021111000,
1111200021112000,
1111100021111000,
1111200021112000,
1111100021111000,
1010100011111000,
1010100011111000,
1100001100001100,
0000110011000000,
1111100011111000,
1111100010001000,
11111111,
1010101011111010,
#GOGOEND
#SCROLL 0.5
22111122,
22111122,
22111122,
2020101022202010,
22111122,
22111122,
22111122,
200000200000100000100000200200200000101010101010,
1
#SCROLL 2
4000000,
#END

COURSE:Oni
LEVEL:9
BALLOON:6
SCOREINIT:990
SCOREDIFF:0
#START
#BPMCHANGE 160
2010202120102021,
2010202120102220,
2010202120102021,
2010202120102220,
2010212120102121,
200000100000200100200100200000100000202020200000,
2010212120102121,
200000100000200100200100200000100000202020200000,
2010212120102121,
200000100000200100200100200000100000202020200000,
100100100000000100000100100000100000101010100100,
00007008,
1101020121101010,
1101120121212211,
1101020121101010,
100100000100100200000100200100200100101010100100,
1101020121101010,
1101120121212211,
1101020121101010,
100000200000200100200100200000100100101010100100,
1101020121101010,
1101120121212211,
1101020121101010,
100100000100100200000100200100200100101010100100,
1101020121101010,
1101120121212211,
1101020121101010,
100000200000200100200100200000100100101010100100,
50082225,
0000080220211120,
5000008020212221,
200000100000200100200100200000100000101010100200,
50082225,
0000080220211120,
5000008020212221,
200000100000200100200100200000100000101010100200,
500000000000800000200100200000202020200000500000,
0000801210211120,
50000000000008002010500000000000,
800000100000200100200100200000100000101010100200,
5000802120201050,
0000801210211120,
5,
800000100000200100200100200000100000101010100200,
1210212022110111,
2221110202101020,
1210212022102210,
2210221020202120,
1210212022110111,
2221110202101020,
100200100000200100200000200200100000202020100100,
0000000000001122,
#GOGOSTART
100100100000100100100000201010100000100100100000,
100100100000100100100100201010100000100100100000,
100100100000100100100000201010100000100100100000,
100100100000201010100000201010100000100100100000,
#GOGOEND
100000100000100010001000100100101010100000000000,
#GOGOSTART
100100100000100100100100201010100000100100100000,
100100100000100100100000201010100000100100100000,
100100100000201010100000201010100000100100200000,
202020100100100100100000100100100000200100100100,
2110111010212010,
200100200000100200100000200200200000101010200000,
1112111211221222,
#GOGOEND
100000100000100010001000100100101010100000000000,
#GOGOSTART
2211221121112111,
1111111021212012,
1121221221112212,
58586858,
100100100000100100100100201010100000100100100000,
100100100000100100100000201010100000100100100000,
100100100000201010100000201010100000100100100000,
100100100000101010100000100100100000101010100000,
101000000101000000101000000000100000100000000000,
100100100000100100100000201010100000100000100000,
2111211121112111,
#GOGOEND
,
000000000000000000000000000000000000202020200100,
2011112020111120,
200000100100100100200000200200100100202020200100,
5800000000000000,
#END

COURSE:Hard
LEVEL:9
BALLOON:4,10,10,16
SCOREINIT:1370
SCOREDIFF:0
#START
#SCROLL 0.75
20102021,
20102021,
20102021,
20102220,
20102021,
20102021,
20102021,
20102220,
20102121,
20102121,
20102121,
2000100022202000,
20102121,
20102121,
20102121,
2000100022202000,
20102121,
20102121,
20102121,
2000100022202000,
11100101,
1000100011101010,
,
7008,
11010201,
21101010,
11011201,
21212211,
11010201,
21101010,
11011201,
2010201011101010,
11010201,
21101010,
11011201,
21212211,
11010201,
21101010,
10202121,
2000101011101010,
11010201,
21101010,
11011201,
21212211,
11010201,
21101010,
11011201,
2010201011101010,
11010201,
21101010,
11011201,
21212211,
11010201,
21101010,
10202121,
2000101011101010,
5008,
2225,
00000802,
20211120,
5008,
20212221,
20102121,
200000100000101010100200,
5008,
2225,
00000802,
20211120,
5008,
20212221,
20102121,
200000100000101010100200,
50008021,
2000222020005000,
00008012,
10211120,
5000000000000800,
21500000,
80102121,
200000100000101010100200,
50008021,
2215,
00008012,
10211120,
5,
,
80102121,
200000100000101010100200,
12102120,
22110111,
22211102,
02101020,
12102120,
22102210,
22102210,
20202120,
12102120,
22110111,
22211102,
02101020,
12102120,
2020100022201010,
,
00001122,
#GOGOSTART
5858,
2500800050008000,
50805081,
2500800050008000,
5858,
2500800050008000,
5000800025008000,
2500800050008000,
#GOGOEND
7,
0008,
#GOGOSTART
50805081,
2500800050008000,
5858,
2500800050008000,
5000800025008000,
2500800010102000,
202020100500000000000000,
00802111,
25000080,
10212010,
21201210,
500800222200,
11201220,
22201210,
#GOGOEND
7,
0008,
#GOGOSTART
22102210,
21102110,
5008,
7,
,
0008,
5,
0008,
50805081,
2500800050008000,
5858,
2500800050008000,
5000800025008000,
2500800050008000,
11105080,
11105080,
100000000100000000101000,
0110,
5858,
2500800010001000,
11111111,
11111111,
#GOGOEND
,
,
,
0000000022202010,
,
,
,
0000000022201010,
58000000,
#END

COURSE:Normal
LEVEL:6
BALLOON:
SCOREINIT:2610
SCOREDIFF:0
#START
#BPMCHANGE 160
20202022,
20202022,
20202022,
20202022,
10101011,
10101022,
10101011,
10101022,
10101011,
10101022,
1010010100101010,
,
1001010020001000,
1001010020001010,
1001010020001000,
1001010020002020,
1001010020001000,
1001010020001010,
1001010020001000,
1001010020005080,
1001010020001000,
1001010020001010,
1001010020001000,
1001010020002020,
1001010020001000,
1001010020001010,
1001010020001000,
1001010020005080,
50082025,
0000080020001020,
50082220,
1001010020002020,
50082025,
0000080020001020,
50082220,
1001010020001020,
50822205,
00811012,
50000000000008002000500000000000,
80002012,
50822205,
00811012,
5,
80001111,
,
,
,
,
1212,
1212,
10101033,
,
#GOGOSTART
1121,
1000100120001000,
1121,
1121,
#GOGOEND
5008,
#GOGOSTART
1000100120001000,
1121,
1121,
23102011,
10102110,
11102022,
11102220,
#GOGOEND
5008,
#GOGOSTART
11102220,
50802220,
11101110,
5008,
1000100120001000,
3343,
3343,
33304330,
3003003040303000,
30304011,
4444,
#GOGOEND
,
00000022,
,
00000022,
5800000000000000,
#END

COURSE:Easy
LEVEL:6
BALLOON:10,10,16
SCOREINIT:2710
SCOREDIFF:0
#START
#SCROLL 0.5
2,
2,
2,
2,
2,
2,
2,
2,
22,
22,
22,
22,
22,
22,
22,
22,
2121,
2121,
2121,
2121,
1100,
1111,
,
,
1001,
2001,
1001,
2222,
1001,
2001,
1001,
2222,
1001,
2001,
1001,
2222,
1001,
2001,
1001,
2222,
1001,
2001,
1001,
2222,
1001,
2001,
1001,
2222,
1001,
2001,
1001,
2222,
1001,
2001,
1001,
2222,
5008,
0205,
08,
2220,
5,
,
8,
0022,
5008,
0205,
08,
2220,
5,
,
8,
0022,
58,
2225,
08,
1111,
5,
8500,
8,
0022,
58,
2225,
08,
1111,
5,
,
8,
1111,
22,
21,
21,
21,
22,
21,
21,
21,
22,
21,
21,
21,
2121,
2111,
2,
,
#GOGOSTART
33,
43,
30003002,
23,
33,
43,
34,
43,
#GOGOEND
7,
0008,
#GOGOSTART
30003002,
23,
33,
43,
34,
4002,
2500,
0821,
5008,
0220,
2201,
5820,
11,
21,
#GOGOEND
7,
0008,
#GOGOSTART
22,
22,
5008,
7,
,
0008,
5,
0008,
30003002,
23,
33,
43,
34,
43,
1130,
1130,
10010010,
0110,
33,
4011,
1111,
1111,
#GOGOEND
,
,
,
0022,
,
,
,
00002011,
1,
#END
