TITLE:Annihilation
SUBTITLE:--H5
WAVE:Annihilation.ogg
BPM:213
OFFSET:-0
DEMOSTART:101.462
SCOREMODE:2
MAKER:bol

COURSE:Oni
LEVEL:10.6
BALLOON:3,2,1,4,11
SCOREINIT:610
SCOREDIFF:0
#START
30010010,
3334,
1021102011201121,
102110201211
#SCROLL 2
4000,
#SCROLL 1
1012102011201120,
112011211011
#SCROLL 2
4000,
#SCROLL 1
1012102010221120,
102210111011
#SCROLL 2
4000,
#SCROLL 1
1020102010201011,
102012111010
#SCROLL 2
4000,
#SCROLL 1
1020102010211020,
1020102011211020,
1120112011221120,
1021102012112022,
1011202210112022,
1011202210112022,
1120112012201220,
1111201111201120,
1022102210221010,
2210102110201120,
1022102210221010,
2210102112112012,
1022102210221010,
2210102110201120,
1120112012201220,
78787840,
#GOGOSTART
1011201021102120,
2011201022102120,
1022102011201120,
1011201122102012,
1011201021102120,
2011201022102120,
1110201110201120,
#GOGOEND
1002101002102012,
#GOGOSTART
1010201110102012,
1010201110212012,
1010201110102012,
1022102011201122,
1010201110102012,
1010201110212012,
1111202011112020,
1110201110201000,
#GOGOEND
1000221000102222,
1000221000102222,
1000221000102222,
0011201000112012,
1000221000102222,
1000221000102222,
100000222200300000222200,
3078,
#SCROLL 0.75
10102011,
01102010,
10102001,
0010101020112000,
10102011,
01102010,
10102001,
0010100022112000,
10102011,
01102000,
10002011,
0000111022201110,
#SCROLL 1
1011201110112011,
1011201210210210,
2211201122112011,
2020001120102000,
#SCROLL 0.5
11011012,
#BARLINEOFF
21021012,
20200221,
20120212,
11011012,
21021012,
20202021,
0010101120201020,
#SCROLL 0.75
#BARLINEON
11211211,
22122122,
20200211,
20120212,
11211211,
22122122,
10101212,
0010201120200020,
#SCROLL 1
2011102011102011,
2011102011102011,
2011102011102011,
2011101020122210,
10221022
#SCROLL 1.25
10221022,
#SCROLL 1.5
10221022
#SCROLL 1.75
10221022,
#SCROLL 2
1212121211111111,
#SCROLL 1
201120112110
#SCROLL 2
4000,
#SCROLL 1
#GOGOSTART
1012102110201120,
2012102110201120,
2011201110201122,
2011201110212120,
1012102110201120,
2012102110201120,
33030303,
000000101010100000100100100000100000200200200200,
1011202110112022,
1011201210212012,
2011201110221120,
2011201110212120,
1011202110112022,
1011201210212012,
1011202211221212,
0010201120221122,
#GOGOEND
7008,
#GOGOSTART
1012102110201120,
2211201110201122,
2011201111212120,
1012102110201120,
2012102110221120,
33232323,
#GOGOEND
000000102020100000100200100000100000200200200200,
#GOGOSTART
1111202110112022,
1011201210212012,
2011201110221122,
1011201210221120,
1011202110112022,
1011201210212012,
1021212010212120,
1120112012112011,
#GOGOEND
2011102011102011,
2011102011102011,
2111102111102011,
2111102111102012,
#GOGOSTART
10221022
#SCROLL 1.25
10221022,
#SCROLL 1.5
10221022
#SCROLL 1.75
10221022,
#SCROLL 2
1212121211111111,
#SCROLL 1
1111201111201000,
#GOGOEND
#SCROLL 0.5
3002,
#BARLINEOFF
2022,
2,
,
3,
,
,
,
#END

COURSE:Hard
LEVEL:8
BALLOON:30
SCOREINIT:1460
SCOREDIFF:0
#START
30030030,
3334,
1111,
1114,
11101010,
1114,
11101010,
1000101110004000,
10101011,
1000101110004000,
1111,
1111,
12121212,
1112,
11201020,
1212,
1212,
11211210,
10201021,
01211020,
10201021,
01211020,
11201021,
01211020,
1212,
5084,
#GOGOSTART
11101010,
10101022,
10101011,
10102022,
1112,
10101022,
1112,
#GOGOEND
1000101000102011,
#GOGOSTART
11201020,
10201220,
1212,
10201222,
1212,
10201220,
1212,
10000220,
#GOGOEND
10200222,
10200222,
10200222,
50008140,
10200222,
10200222,
33,
3,
12,
0120,
12,
0120,
12,
0120,
12,
2224,
12,
0120,
12,
0120,
1212,
1000200010010010,
11020011,
02002120,
12,
02,
12,
02,
12,
02,
12,
1,
10200120,
10201220,
10200120,
10201220,
10200120,
10201220,
10200120,
1,
10222020,
10222220,
10222020,
10221020,
9,
,
,
8004,
#GOGOSTART
11101010,
1111,
1111,
10101011,
11201020,
10201220,
11030303,
0011101110101110,
11201020,
10201220,
1212,
10201222,
11201020,
10201220,
1212,
1000200010202011,
#GOGOEND
10202021,
#GOGOSTART
10201220,
1212,
10201222,
11201020,
10201220,
11030303,
#GOGOEND
0011101110101110,
#GOGOSTART
1110200010002000,
10201220,
1212,
10201222,
11201020,
10201220,
3232,
1000200010202011,
#GOGOEND
11101010,
12101020,
12101020,
1020100010001011,
#GOGOSTART
1022200020002000,
2222,
2020202022202220,
3,
#GOGOEND
1002,
2022,
2,
,
3,
,
,
,
#END

COURSE:Normal
LEVEL:7
BALLOON:18
SCOREINIT:1730
SCOREDIFF:0
#START
3,
3334,
1111,
1114,
11101010,
1114,
11101010,
10111040,
10101011,
10111040,
1111,
1111,
1111,
1112,
11101010,
1111,
1111,
11011010,
10101011,
01111010,
10101011,
01111020,
11101011,
01111010,
1111,
5084,
#GOGOSTART
11101010,
1111,
1111,
10101011,
1111,
1111,
1111,
#GOGOEND
10110120,
#GOGOSTART
11101010,
10101110,
1111,
10101110,
1111,
10101110,
1111,
1002,
#GOGOEND
10200220,
10200220,
10200220,
5084,
10200220,
10200220,
33,
3,
12,
02,
12,
02,
12,
0120,
12,
2220,
12,
02,
12,
02,
1202,
1220,
1202,
1,
12,
02,
12,
02,
12,
02,
12,
1,
1202,
1220,
1202,
1220,
1202,
1220,
1202,
1,
10222020,
10222020,
10222020,
10221020,
9,
,
,
8004,
#GOGOSTART
11101010,
1111,
1111,
10101011,
11201020,
10201220,
11030303,
01101020,
11201020,
10201220,
1212,
10201222,
11201020,
10201220,
1212,
10201220,
#GOGOEND
30000011,
#GOGOSTART
10201220,
1212,
10201222,
11201020,
10201220,
11030303,
#GOGOEND
01101021,
#GOGOSTART
11201020,
10201220,
1212,
10201222,
11201020,
10201220,
33,
58,
#GOGOEND
11101010,
1111,
1111,
10101011,
#GOGOSTART
12202020,
2222,
22202220,
3,
#GOGOEND
1002,
2022,
2,
,
3,
,
,
,
#END

COURSE:Easy
LEVEL:5
BALLOON:15
SCOREINIT:2400
SCOREDIFF:0
#START
3,
3330,
1111,
1110,
1111,
1110,
1111,
1110,
1111,
1110,
1110,
1110,
1111,
1002,
1110,
1110,
1111,
1002,
1202,
1202,
1202,
1202,
1202,
1202,
1202,
1004,
#GOGOSTART
1110,
1110,
1111,
1002,
1110,
1110,
1111,
#GOGOEND
1002,
#GOGOSTART
1110,
1110,
1111,
1002,
1110,
1110,
1111,
1002,
#GOGOEND
1202,
0202,
0202,
58,
1202,
0202,
33,
3,
11,
1100,
11,
1100,
11,
1100,
11,
1100,
11,
1100,
11,
1100,
1110,
1110,
1111,
1,
12,
02,
12,
02,
12,
02,
12,
1,
1202,
1200,
1202,
1200,
1202,
1200,
1202,
1,
1110,
1110,
1110,
1110,
9,
,
,
8004,
#GOGOSTART
1111,
1110,
1111,
1110,
1210,
1210,
1212,
1210,
1210,
1210,
1212,
1210,
1210,
1210,
1212,
3330,
#GOGOEND
3,
#GOGOSTART
1212,
1212,
1110,
1110,
1110,
1111,
#GOGOEND
1004,
#GOGOSTART
1210,
1210,
1212,
1110,
1111,
1110,
33,
58,
#GOGOEND
1101,
1101,
1101,
1101,
#GOGOSTART
1212,
1212,
1111,
58,
#GOGOEND
1002,
2022,
2,
,
3,
,
,
,
#END
