TITLE:lost in the cityscape
SUBTITLE:--Makotora
BPM:145
WAVE:lost in the cityscape.ogg
OFFSET:-0.225
DEMOSTART:82.9866
PREIMAGE:preimage.png
MAKER:Makotora & Komi

COURSE:Edit
LEVEL:9
BALLOON:15
SCOREINIT:
SCOREDIFF:
#START
12101010,
12101122,
12101010,
12101011,
12101010,
12101122,
12101010,
7008,
1011200010221020,
1011200010212012,
1011200010221020,
1011200010212210,
1011200010221020,
1011200010212012,
1011200010221020,
1011200020122120,
#SCROLL 1
3011201040112010,
#SCROLL 1.06364
3011201040112220,
#SCROLL 1.13636
3011201040112010,
#SCROLL 1.20909
3011201040112220,
#SCROLL 1.28182
3021212030212210,
#SCROLL 1.35455
3021212030212210,
#SCROLL 1.42727
1122112211221122,
#SCROLL 1.5
100200100200100100100100101010101010500000800000,
#BARLINEOFF
#SCROLL 1
1
#SCROLL 0.916667
1
#SCROLL 0.833333
2
#SCROLL 0.75
20
#SCROLL 1
1
#SCROLL 0.875
2
#SCROLL 0.75
2,
#SCROLL 1
1
#SCROLL 0.964286
1
#SCROLL 0.928571
2
#SCROLL 0.892857
1
#SCROLL 0.857143
2
#SCROLL 0.821429
2
#SCROLL 0.785714
1
#SCROLL 0.75
2,
#SCROLL 1
1
#SCROLL 0.916667
1
#SCROLL 0.833333
2
#SCROLL 0.75
20
#SCROLL 1
1
#SCROLL 0.875
2
#SCROLL 0.75
2,
#SCROLL 1
1
#SCROLL 0.964286
2
#SCROLL 0.928571
1
#SCROLL 0.892857
1
#SCROLL 0.857143
2
#SCROLL 0.821429
1
#SCROLL 0.785714
2
#SCROLL 0.75
2,
#SCROLL 1
1
#SCROLL 0.916667
1
#SCROLL 0.833333
2
#SCROLL 0.75
20
#SCROLL 1
1
#SCROLL 0.875
2
#SCROLL 0.75
2,
#SCROLL 1
1
#SCROLL 0.964286
2
#SCROLL 0.928571
2
#SCROLL 0.892857
1
#SCROLL 0.857143
2
#SCROLL 0.821429
2
#SCROLL 0.785714
1
#SCROLL 0.75
2,
#SCROLL 1
1
#SCROLL 0.916667
1
#SCROLL 0.833333
2
#SCROLL 0.75
20
#SCROLL 1
1
#SCROLL 0.875
2
#SCROLL 0.75
2,
#SCROLL 1
1
#SCROLL 0.964286
1
#SCROLL 0.928571
2
#SCROLL 0.892857
1
#SCROLL 0.857143
1
#SCROLL 0.821429
2
#SCROLL 0.785714
1
#SCROLL 0.75
2,
#BARLINEON
#SCROLL 1
1011201000112020,
1011201000221010,
1011201000112020,
1011201021012210,
1011201000221010,
1011201000112020,
1011201000221010,
1011201012021120,
#SCROLL 1
3022102011201120,
#SCROLL 1.06364
1021201210221120,
#SCROLL 1.13636
4011201022102210,
#SCROLL 1.20909
2012102120112210,
#SCROLL 1.28182
3021212030212210,
#SCROLL 1.35455
3021212030212210,
#SCROLL 1.42727
1122112211221122,
#SCROLL 1.5
100200100200100100100100101010101010500000800000,
#BARLINEOFF
#SCROLL 2
3,
,
#GOGOSTART
#BARLINEON
#SCROLL 1.25
1101201011212011,
2101202212102011,
1022102011221020,
1120102211201212,
1101201011212011,
2101202212102011,
2022101121012110,
100200200200100100200200100100100200101010101010,
1021201121201022,
1021201121201022,
1011201121012022,
1022120210102020,
1021201121201022,
1021201121201022,
1022112122121122,
100200200100200100200200101010101010100000000000,
#SCROLL 1
3011201040112010,
#SCROLL 1.06364
3011201040112220,
#SCROLL 1.13636
3011201040112010,
#SCROLL 1.20909
3011201040112220,
#SCROLL 1.28182
3021212030212210,
#SCROLL 1.35455
3021212030212210,
#SCROLL 1.42727
1122112211221122,
#SCROLL 1.5
100200100200100100100100101010101010500000800000,
#GOGOEND
#BARLINEOFF
#SCROLL 0.5
11120202,
11120122,
11120101,
02112212,
11120202,
11120122,
11120112,
01121210,
#SCROLL 2
3,
#END

COURSE:Oni
LEVEL:7
BALLOON:15
SCOREINIT:
SCOREDIFF:
#START
12101010,
12101122,
12101012,
21101011,
12101010,
12101122,
12101010,
7008,
1011200010102000,
1011200010102000,
1011200010102000,
1011200010102020,
1011200010102000,
1011200010102020,
1011200010102000,
1011200020021010,
3011201040112010,
3011201040102220,
3011201040112010,
3011201040102220,
3021212030212120,
3021212030212120,
1222122212221222,
1212111150000080,
#BARLINEOFF
11220122,
11212212,
11220122,
12112122,
11220122,
12212212,
11220122,
1010201010021020,
#BARLINEON
1011201000102020,
1011201000102010,
1011201000102020,
1011201000102010,
1011201000102010,
1011201000102020,
1011201000102010,
1011201020021020,
3011202010112020,
1011202010102220,
4011201020112010,
2011201020102220,
3021212030212120,
3021212030212120,
1222122212221222,
1212111150000080,
#BARLINEOFF
3,
,
#GOGOSTART
#BARLINEON
1101201020002010,
2101201020002011,
12120212,
0010202210201010,
1101201020002010,
2101201020002010,
22110121,
1222122212225080,
1120102010102210,
1120102010102210,
1120102010102210,
1120102010221022,
1120102010102210,
1120102010102210,
1120102010102210,
1222122250008000,
3011201040112010,
3011201040102220,
3011201040112010,
3011201040102220,
3021212030212120,
3021212030212120,
1222122212221222,
1212111150000080,
#GOGOEND
#BARLINEOFF
11120202,
11120122,
11120101,
02112212,
11120202,
11120122,
11120112,
01121210,
#SCROLL 2
3,
#END

COURSE:Hard
LEVEL:5
BALLOON:15
SCOREINIT:
SCOREDIFF:
#START
12101010,
10101122,
12101010,
12101011,
12101010,
10101122,
12101010,
7008,
11201210,
11201221,
11201210,
11201221,
11201210,
11202112,
11201210,
11202112,
31104110,
31104122,
31104110,
31104122,
32223221,
32223221,
1010111010101110,
5008,
11220122,
11202210,
11220122,
12102120,
11220122,
12202110,
11220122,
12102120,
11210221,
11210122,
12110221,
1020101000111010,
11210221,
11210122,
12110221,
1020101020022020,
3000102010201110,
1000201010202220,
4000201020102220,
2000102020101110,
32223221,
32223221,
1010111010101110,
5008,
3,
,
#GOGOSTART
#BARLINEON
10211120,
11210121,
20122211,
02121211,
11211120,
11210121,
20122210,
1110222050008000,
1020201022201020,
1020201022201020,
12212112,
12102120,
1020201022201020,
1020201022201020,
11221120,
1110222050008000,
31104110,
3010100040102220,
31104110,
3010100040102220,
32223221,
32223221,
1010111010101110,
5008,
#GOGOEND
#BARLINEOFF
#SCROLL 0.5
10120202,
10120020,
10120101,
02102210,
10120202,
10120020,
10120102,
01020210,
3,
#END

COURSE:Normal
LEVEL:5
BALLOON:15
SCOREINIT:
SCOREDIFF:
#START
1111,
10101122,
1111,
10101011,
1111,
10101122,
1111,
7008,
10201210,
10201021,
10201210,
10201021,
10201210,
10201021,
10201210,
10201022,
3141,
30104022,
3141,
30104022,
30223021,
30223021,
10101111,
5008,
10220022,
1221,
10220022,
1122,
10220022,
1221,
10220022,
1122,
10210021,
10210022,
10210021,
10210022,
10210021,
10210022,
10210021,
10210022,
30121010,
10212020,
40212020,
20121010,
30223021,
30223021,
10101111,
5008,
3,
,
#GOGOSTART
#BARLINEON
10201120,
10202120,
20102210,
20101210,
10201120,
10202120,
20102210,
11225080,
10212012,
10212012,
1221,
1020,
10212012,
10212012,
1212,
11225080,
3141,
30104022,
3141,
30104022,
30223021,
30223021,
10101111,
5008,
#GOGOEND
#BARLINEOFF
#SCROLL 0.5
10020202,
10020020,
10020101,
02102010,
10020202,
10020020,
10020102,
01020210,
3,
#END

COURSE:Easy
LEVEL:5
BALLOON:15
SCOREINIT:
SCOREDIFF:
#START
1011,
1012,
1011,
1011,
1011,
1012,
1011,
7008,
1202,
1201,
1202,
1201,
1202,
1201,
1202,
1201,
3040,
3042,
3040,
3042,
3131,
3131,
1111,
5008,
1202,
1020,
1200,
1120,
1202,
1020,
1200,
1120,
1202,
1202,
1202,
1202,
1202,
1202,
1202,
1202,
3110,
1110,
4220,
2220,
3131,
3131,
1111,
5008,
3,
,
#GOGOSTART
#BARLINEON
1012,
1012,
2021,
2011,
1012,
1012,
2011,
2258,
1221,
1221,
1001,
1021,
1221,
1221,
1011,
2258,
3111,
3111,
3111,
3111,
3131,
3131,
10101110,
5008,
#GOGOEND
#BARLINEOFF
#SCROLL 0.5
1,
10020000,
10020000,
1010,
10020000,
10020000,
1,
1001,
3,
#END
