TITLE:Slayer of.
SUBTITLE:--Aden Mayo
BPM:230
WAVE:Slayer of..ogg
OFFSET:-0.043
DEMOSTART:60.564
SCOREMODE:2

COURSE:Edit
LEVEL:11
BALLOON:
SCOREINIT:690
SCOREDIFF:0
#START
#SCROLL 0.75
30201201,
20120121,
10201201,
#GOGOSTART
#SCROLL 1
3021203022104012,
#GOGOEND
#SCROLL 0.75
10201201,
20120121,
10201201,
#GOGOSTART
#SCROLL 1
3022103020112210,
1011201110102010,
1110201210112010,
1011201110102010,
1011201122102212,
1011201110102010,
1110201210112010,
1011201110102010,
1011201011102222,
1011101020222020,
2021212020112210,
1021212020112110,
1011201022112210,
1011101020222020,
2021212020112210,
1021212020112110,
1011201040102222,
#SCROLL 1.25
1010221010112010,
100000100100200100100000200200100100202020202020,
#GOGOEND
#SCROLL 1
10201212,
100000200111100200100200,
10201212,
100000220000100200100200,
10201212,
100000200111100200100200,
1120221012202112,
2011201121102210,
10201212,
100000200111100200100200,
10201212,
100000100000202000100000101000200000100200200000,
10201212,
100000200111100200100200,
1011201022002210,
2210101120112011,
1000201110201120,
100000000000200000101010100000200000100000200200,
1000222011101220,
1120221011202210,
1000201110201120,
100000000000200000101010100000200000100000200200,
1000222210002211,
1000211110002210,
1000201110201120,
101020102000100000000000100100100000200100200000,
2220111012102120,
1120112022102210,
1000201110201120,
100000000000200000101010100000200000100000200200,
50000008,
400000101000400000101000400000101000400000100100,
#GOGOSTART
1011202010112020,
1011201122102210,
1110222011101220,
1011201122121012,
1011202010112020,
1110221012102120,
1011202210112022,
1011202211102210,
1011201210212022,
101020102000100000000000100100100000200100200200,
1210221012102210,
1110221011201220,
1011201211102220,
1011201212102120,
1111201111201120,
1111201111201120,
#SCROLL 0.75
100000000000000000100000202020100100202020100000,
1000201122102110,
101010200100200000100000200000200200100000200000,
300000000000300000000000200200101010200000000000,
#SCROLL 1
1120112012201120,
2210221021102110,
2211201021112010,
2211221111221110,
100000100100200000100000200010002000100020001000,
100100100000200020002000100100100000200200200000,
200010001000200010001000200200100000200100100000,
1011222210112120,
1011201022102120,
1011201021102220,
2221221121112111,
1122112212221222,
1011202010112020,
1011201122102210,
1110222011101220,
1011201122121012,
1011202010112020,
1110221012102120,
1110222012102120,
1121221011212220,
1011201210212022,
101020102000100000000000100100100000200100200000,
1210221012102210,
1110221011201220,
1011201211102220,
1011201212102120,
2212212212212211,
2112112112112212,
#GOGOEND
,
#END

COURSE:Oni
LEVEL:10
BALLOON:
SCOREINIT:840
SCOREDIFF:0
#START
#SCROLL 0.75
30201201,
20120121,
10201201,
#SCROLL 1.1
#GOGOSTART
3011103000104010,
#SCROLL 0.75
#GOGOEND
10201201,
20120121,
10201201,
#SCROLL 1.1
#GOGOSTART
3011103022204020,
10201120,
1011202010002011,
1011202010112020,
1011202010002000,
10201120,
1011202010002011,
1011202020101110,
1021201010002210,
10201120,
1011202010002011,
1011202010112020,
1011202010002000,
10201120,
1011202010002011,
1011202020101110,
2220111040004000,
#SCROLL 1.25
1110201020102220,
4010401040101110,
#GOGOEND
#SCROLL 1.1
1000200011201020,
1000201110201020,
1000200011201020,
1000200011201120,
1000200011201020,
1000201110201020,
1120102012101020,
2010211010221020,
1000200011201020,
1000201110201020,
1000200011201020,
1110201110201120,
1000200011201020,
1000201110201020,
1010112010101121,
200100100110400100400100,
1000200011201120,
1000201110201120,
1000201110201120,
1110201011102020,
1000222011201120,
1010201120201120,
1111200011122000,
1122200022112000,
5008,
1121200011102020,
2220111021202220,
1110201120102210,
1000222011201120,
1000201120201120,
50000008,
41414140,
#GOGOSTART
1000200011201120,
1000201110201120,
1000201110201120,
1110201011102020,
1000222011201120,
1010201120201120,
1111200011122000,
1122200022112000,
5008,
1121200011102020,
2220111021202220,
1110201120102210,
1000222011201120,
1000201120201120,
50000008,
1000201110404040,
#SCROLL 0.75
1000211121112111,
2000201120002020,
1010201040104011,
2000300040112000,
#SCROLL 1.1
1121201010201020,
2110201210202020,
11211212,
2111211121212120,
1212121112122121,
2112222211111122,
1121202011202020,
21121122,
1211122111202000,
1120201110102010,
1120201010102010,
21212121,
1000200011201120,
1000201110201120,
1000201110201120,
1110201011102020,
1000222011201120,
1010201120201120,
1110202011102020,
1210202022102020,
5008,
1121200011102020,
2220111021202220,
1110201120102210,
1000222011201120,
1000201120201120,
1121221211211121,
2121121112211212,
#GOGOEND
,
#END

COURSE:Hard
LEVEL:8
BALLOON:
SCOREINIT:1100
SCOREDIFF:0
#START
#SCROLL 0.75
30201201,
20120120,
10201201,
#GOGOSTART
#SCROLL 1
30030040,
#GOGOEND
#SCROLL 0.75
10201201,
20120120,
10201201,
#GOGOSTART
#SCROLL 1
30032222,
10201120,
1010201110002000,
11211022,
11210120,
10201120,
1010201110002000,
11211022,
11210122,
10201120,
1010201110002000,
11211022,
11210120,
10201120,
1010201110002000,
11211022,
11404040,
1000201000102220,
40404068,
#GOGOEND
10201212,
1000201110201020,
10201212,
10201212,
10201212,
1000201110201020,
1110202011102020,
1110111010101000,
10201212,
1000201110201020,
10201212,
10401212,
10201212,
1000201110201020,
1110202011102220,
41114140,
10201212,
1000201110201020,
10201212,
10221120,
10201212,
1000201110201020,
1110200011102000,
1110200011102000,
5008,
1122200020002000,
2112,
1000202220002220,
1000201110201020,
1000201110201022,
50000008,
4444,
#GOGOSTART
10201212,
1000201110201020,
10201212,
10221120,
10201212,
1000201110201020,
1110200011102000,
1110200011102000,
5008,
1122201110002000,
2112,
1110200022202000,
10211212,
1000201110201020,
10211212,
10211444,
#SCROLL 0.75
10112011,
02102012,
10112120,
3000300040112000,
#SCROLL 1
1110201010201020,
1110201010202020,
1110201010201020,
1110201020202000,
1110202011102020,
1110201120102000,
1110202011102020,
21121122,
1110201010102000,
1110201010102000,
1110201010102010,
21212120,
10201212,
1000201110201020,
10201212,
10221120,
10201212,
1000201110201020,
1110202011102020,
1110222011102220,
5008,
1122201110102020,
2011100010112000,
1110200022202000,
10211212,
1000201110201020,
10211212,
1110111022202222,
#GOGOEND
,
#END

COURSE:Normal
LEVEL:7
BALLOON:3,3,3,3,3
SCOREINIT:1540
SCOREDIFF:0
#START
30200200,
20020120,
10200200,
#GOGOSTART
30030040,
#GOGOEND
10200200,
20020120,
10200200,
#GOGOSTART
30035008,
1212,
10211020,
10211020,
10210120,
1212,
10211020,
10211020,
10210120,
1212,
10211020,
10211020,
10210120,
1212,
10211020,
10211020,
1444,
10010011,
4444,
#GOGOEND
10201202,
10211202,
10201202,
10201202,
10201202,
10211202,
11201120,
11101110,
10201202,
10211202,
10201202,
10201202,
10201202,
10211202,
11201120,
4144,
10201202,
10211202,
10201202,
10201202,
10201202,
10211202,
11201120,
11201120,
5008,
7822,
2112,
10122020,
10201212,
10201212,
5008,
4444,
#GOGOSTART
10201202,
10211202,
10201202,
10201202,
10201202,
10211202,
11201120,
11201120,
5008,
7822,
2112,
10122020,
10201212,
10201212,
5008,
10101110,
10002100,
10012000,
10102022,
3344,
11201120,
11201120,
11201120,
11201120,
11101120,
12102120,
11201120,
20120120,
11211120,
11211120,
11211121,
10210120,
10201202,
10211202,
10201202,
10201202,
10201202,
10211202,
11201120,
11201120,
5008,
7822,
2112,
10122020,
10201212,
10201212,
11201120,
11102222,
#GOGOEND
,
#END

COURSE:Easy
LEVEL:4
BALLOON:
SCOREINIT:2600
SCOREDIFF:0
#START
3,
,
,
#GOGOSTART
30030030,
#GOGOEND
3,
,
,
#GOGOSTART
30030000,
1202,
1202,
1202,
1212,
1202,
1202,
1202,
1212,
1202,
1202,
1202,
1212,
1202,
1202,
1202,
1444,
10010010,
4444,
#GOGOEND
10200202,
00200202,
00200202,
00200202,
10200202,
00200202,
11,
1110,
10200202,
00200202,
00200202,
00200202,
10200202,
00200202,
11,
4044,
5008,
1122,
1212,
1122,
5008,
1122,
33,
44,
5008,
2222,
2112,
1122,
5,
8,
5008,
4444,
#GOGOSTART
5008,
1122,
1212,
1122,
5008,
1122,
33,
44,
5008,
2222,
2112,
1122,
5,
8,
5008,
1111,
12,
12,
1022,
3358,
1212,
1212,
1212,
1212,
1112,
1122,
1212,
2222,
1212,
1212,
1212,
1212,
5008,
1122,
1212,
1122,
5008,
1122,
3232,
3232,
5008,
2222,
2112,
1122,
5,
8,
5008,
10101011,
#GOGOEND
,
#END
