TITLE:Liar Prison
TITLEJA:らいあーぷりずん
SUBTITLE:--SiLiS ft. Karin Natsuki
SUBTITLEJA:SiLiS ft. 夏色花梨
WAVE:Liar Prison.ogg
PREIMAGE:Liar Prison.png
LYRICS:Liar Prison.vtt
BPM:160.00
OFFSET:-1.500
DEMOSTART:64.500
MAKER:Komi

COURSE:Edit
LEVEL:10.0
BALLOON:
#START
#MEASURE 4/4
#SCROLL 1.50
300000000400000000
#SCROLL 1.28
20
#SCROLL 1.26
10
#SCROLL 1.24
10,
#SCROLL 1.22
2
#SCROLL 1.20
1
#SCROLL 1.18
1
#SCROLL 1.16
2
#SCROLL 1.14
1
#SCROLL 1.12
1
#SCROLL 1.10
2
#SCROLL 1.08
1
#SCROLL 1.06
1
#SCROLL 1.04
2
#SCROLL 1.02
1
#SCROLL 1
1,
#SCROLL 1.50
300000000300000000400000000000000000
#SCROLL 1.28
2000
#SCROLL 1.26
1000
#SCROLL 1.24
1000,
#SCROLL 1.22
2
#SCROLL 1.20
1
#SCROLL 1.18
1
#SCROLL 1.16
2
#SCROLL 1.14
1
#SCROLL 1.12
1
#SCROLL 1.10
2
#SCROLL 1.08
1
#SCROLL 1.06
1
#SCROLL 1.04
2
#SCROLL 1.02
1
#SCROLL 1
1,
#SCROLL 1.50
300300300400000000
#SCROLL 1.28
20
#SCROLL 1.26
10
#SCROLL 1.24
10,
#SCROLL 1.22
2
#SCROLL 1.20
1
#SCROLL 1.18
1
#SCROLL 1.16
2
#SCROLL 1.14
1
#SCROLL 1.12
1
#SCROLL 1.10
2
#SCROLL 1.08
1
#SCROLL 1.06
1
#SCROLL 1.04
2
#SCROLL 1.02
1
#SCROLL 1
1,
#SCROLL 1.50
3030303040040030,
0
#SCROLL 1.00
122,
2211201011221010,
1121012011202010,
2212101120102011,
2022112210102010,
1122101202102210,
1122101022112010,
22222222,
2222222222222222,
#SCROLL 1.50
300000000400000000
#SCROLL 1.28
20
#SCROLL 1.26
10
#SCROLL 1.24
10,
#SCROLL 1.22
2
#SCROLL 1.20
1
#SCROLL 1.18
1
#SCROLL 1.16
2
#SCROLL 1.14
1
#SCROLL 1.12
1
#SCROLL 1.10
2
#SCROLL 1.08
1
#SCROLL 1.06
1
#SCROLL 1.04
2
#SCROLL 1.02
1
#SCROLL 1
1,
#SCROLL 1.50
300000000300000000400000000000000000
#SCROLL 1.28
2000
#SCROLL 1.26
1000
#SCROLL 1.24
1000,
#SCROLL 1.22
2
#SCROLL 1.20
1
#SCROLL 1.18
1
#SCROLL 1.16
2
#SCROLL 1.14
1
#SCROLL 1.12
1
#SCROLL 1.10
2
#SCROLL 1.08
1
#SCROLL 1.06
1
#SCROLL 1.04
2
#SCROLL 1.02
1
#SCROLL 1
1,
#SCROLL 1.50
300300300400000000
#SCROLL 1.28
20
#SCROLL 1.26
10
#SCROLL 1.24
10,
#SCROLL 1.22
2
#SCROLL 1.20
1
#SCROLL 1.18
1
#SCROLL 1.16
2
#SCROLL 1.14
1
#SCROLL 1.12
1
#SCROLL 1.10
2
#SCROLL 1.08
1
#SCROLL 1.06
1
#SCROLL 1.04
2
#SCROLL 1.02
1
#SCROLL 1
1,
22,
2020202210000000,
1111111111111111,
2222222222222222,
1111111122222222,
1111222211112222,
1111222211112222,
11111111,
00
#SCROLL 1.50
340403,
0,
#MEASURE 1/12
#SCROLL 1.00
1,
#SCROLL 1.02
1,
#SCROLL 1.04
1,
#SCROLL 1.06
2,
#SCROLL 1.08
1,
#SCROLL 1.10
2,
#SCROLL 1.12
1,
#SCROLL 1.10
1,
#SCROLL 1.08
1,
#SCROLL 1.06
2,
#SCROLL 1.04
1,
#SCROLL 1.02
2,
#SCROLL 1.00
10,
#SCROLL 0.98
10,
#SCROLL 0.96
10,
#SCROLL 0.94
20,
#SCROLL 0.92
10,
#SCROLL 0.90
20,
#SCROLL 0.88
10,
#SCROLL 0.90
10,
#SCROLL 0.92
10,
#SCROLL 0.94
22,
#SCROLL 0.96
20,
#SCROLL 0.98
20,
#SCROLL 1.00
1,
#SCROLL 1.02
1,
#SCROLL 1.04
1,
#SCROLL 1.06
2,
#SCROLL 1.08
1,
#SCROLL 1.10
2,
#SCROLL 1.12
1,
#SCROLL 1.10
1,
#SCROLL 1.08
1,
#SCROLL 1.06
2,
#SCROLL 1.04
1,
#SCROLL 1.02
2,
#SCROLL 1.00
10,
#SCROLL 0.98
10,
#SCROLL 0.96
10,
#SCROLL 0.94
20,
#SCROLL 0.92
10,
#SCROLL 0.90
20,
#SCROLL 0.88
10,
#SCROLL 0.90
10,
#SCROLL 0.92
10,
#SCROLL 0.94
22,
#SCROLL 0.96
20,
#SCROLL 0.98
20,
#MEASURE 4/4
#SCROLL 1.00
1111,
1111,
11111111,
1122112211221122,
1212121212121222,
202020100100200200100100200200100100200200100100,
1112,
#GOGOSTART
2011201020112020,
1211202211201011,
2022101122101020,
2211221120112020,
1122112220102010,
1122112220112010,
11111111,
1111111111111111,
2011201020112020,
1211202211201011,
2022101122101020,
2211221120112020,
1122112220102010,
1122112220112010,
11111111,
1111111111111111,
#SCROLL 1.50
#GOGOEND
300000000400000000
#SCROLL 1.28
20
#SCROLL 1.26
10
#SCROLL 1.24
10,
#SCROLL 1.22
2
#SCROLL 1.20
1
#SCROLL 1.18
1
#SCROLL 1.16
2
#SCROLL 1.14
1
#SCROLL 1.12
1
#SCROLL 1.10
2
#SCROLL 1.08
1
#SCROLL 1.06
1
#SCROLL 1.04
2
#SCROLL 1.02
1
#SCROLL 1
1,
#SCROLL 1.50
300000000G00000000400000000000000000
#SCROLL 1.28
2000
#SCROLL 1.26
1000
#SCROLL 1.24
1000,
#SCROLL 1.22
2
#SCROLL 1.20
1
#SCROLL 1.18
1
#SCROLL 1.16
2
#SCROLL 1.14
1
#SCROLL 1.12
1
#SCROLL 1.10
2
#SCROLL 1.08
1
#SCROLL 1.06
1
#SCROLL 1.04
2
#SCROLL 1.02
1
#SCROLL 1
1,
#SCROLL 1.50
300G00G00400000000
#SCROLL 1.28
20
#SCROLL 1.26
10
#SCROLL 1.24
10,
#SCROLL 1.22
2
#SCROLL 1.20
1
#SCROLL 1.18
1
#SCROLL 1.16
2
#SCROLL 1.14
1
#SCROLL 1.12
1
#SCROLL 1.10
2
#SCROLL 1.08
1
#SCROLL 1.06
1
#SCROLL 1.04
2
#SCROLL 1.02
1
#SCROLL 1
1,
#SCROLL 1.50
30G0G0G040040030,
0
#SCROLL 1.00
122,
2011202120221010,
2112211221122122,
2011202120221010,
2011202120221010,
2211221122112211,
1122112211221122,
2121212121212122,
2222111122221111,
200200200200200200200200202020202020202020202020,
1,
2211,
#SCROLL 0.75
12,
1002001000200000,
21221121,
2010112010102220,
2010112010102210,
1010112010102220,
#SCROLL 1.00
43,
200000200000200000200000200200200200202020202020,
#GOGOSTART
2011201020112020,
1211202211201011,
2022101122101020,
2211221120112020,
1122112220102010,
1122112220112010,
2011201020112010,
2011201020112010,
11111111,
1111111122112211,
2211201011221010,
1121012011202010,
2212101120102011,
2022112210102010,
1122101212102210,
1122101122112010,
2020202120202120,
2222222222222222,
#SCROLL 1.50
#GOGOEND
300000000400000000300000000400000000300000202020,
1,
#END

COURSE:Oni
LEVEL:8
BALLOON:9
#START
#MEASURE 4/4
30040020,
2222,
3003004000002000,
2222,
33340020,
2222,
3030303040040030,
0122,
2011201020001010,
1120120210201000,
2012101020112010,
2022102010002010,
1122101020002010,
1122101020002010,
11111111,
50000008,
11122121,
01122121,
1001002000100050,
08,
11121121,
01112112,
22,
33333000,
1020202022202020,
10220202,
1020202020222020,
10000222,
1000202220202020,
33333333,
00340403,
0,
111101111101,
101010100010101010111010,
111101111101,
101010100010101010111010,
1111,
1111,
11111111,
3003003000000000,
3003003000000000,
0,
0112,
#GOGOSTART
21112112,
1120201000201011,
21120211,
2210201120002020,
1122102000102010,
1122102000102010,
11111111,
50000008,
21112112,
1120201000201011,
21120211,
2210201120102020,
1122102000102010,
1122105000008010,
11111111,
50000008,
#GOGOEND
300000000400000000200010,
201201201200,
300000000300000000400000000000000000200000001000,
201201201200,
300300300400000000200010,
201201201200,
3030303040040030,
0121,
2000102120202010,
1343,
2000102120001000,
2000202120102020,
2000200020002112,
1000100010001221,
22222222,
50085008,
50085008,
78,
2211,
#SCROLL 0.75
12,
1002001000200000,
21221021,
21121022,
20121021,
10121022,
#SCROLL 1.00
43,
1010101011111111,
#GOGOSTART
21112112,
1120201000201011,
21120211,
2210201120102020,
1122102000102010,
1122105000008010,
2011201050000000,
00080010,
11111111,
50000008,
2011201020001010,
1120120210201000,
2012101020112010,
2022102010102010,
1122101210102010,
1122101210102010,
11111111,
50000008,
#GOGOEND
3004003004003022,
1,
#END

COURSE:Hard
LEVEL:6
BALLOON:9
#START
#MEASURE 4/4
10020000,
0,
1001002000000000,
0,
11120000,
0,
1010101020020010,
0122,
20112011,
2002001010201000,
21121022,
21121021,
12221021,
12221021,
11111111,
50000008,
11122121,
01122121,
1001002000100050,
08,
11121121,
01112112,
22,
11111000,
12222222,
10220202,
12222222,
10000222,
10222222,
11111111,
00120203,
0,
100101100101,
100101100111,
100101100101,
100101100111,
1111,
1111,
11111111,
3003003000000000,
3003003000000000,
0,
0112,
#GOGOSTART
21112112,
02210201,
21120215,
00008011,
2001001000102010,
2001001000000010,
11111111,
50000008,
21112112,
02210201,
21120215,
00008111,
2001001000102010,
2001005000008010,
11111111,
50000008,
#GOGOEND
10020020,
2222,
1001002000002000,
2222,
11120020,
2222,
1010101020020010,
0121,
2000102220202010,
1343,
2000101110001000,
2000202220102020,
2000200020002011,
1000100010001022,
22222222,
50085008,
50085008,
98,
2211,
#SCROLL 0.75
10112012,
0002002000100010,
21220121,
00001022,
2001001000202020,
2001001000000020,
#SCROLL 1.00
23,
11111111,
#GOGOSTART
21112112,
02210201,
21120215,
00008111,
2001001000102010,
2001005000008010,
50825000,
00080020,
11111111,
50000008,
20112011,
2002001010201000,
21121022,
21121021,
2220202010002010,
1110202010002010,
11111111,
50000008,
#GOGOEND
3003004004001020,
1,
#END

COURSE:Easy
LEVEL:2
BALLOON:5
#START
#MEASURE 4/4
1,
0,
1,
0,
1,
0,
11,
0,
2,
1,
11,
22,
1001,
1001,
1,
58,
1,
0,
1,
0,
1,
0,
11,
14,
1,
1100,
12,
1,
12,
1011,
0100,
0,
2,
2,
2,
2,
11,
11,
11,
4,
4,
0,
0,
#GOGOSTART
11,
1110,
22,
1002,
2001,
1,
1022,
2,
11,
1110,
22,
1002,
2001,
1,
1022,
2,
#GOGOEND
1,
0,
1,
0,
1,
0,
11,
0,
22,
1110,
22,
22,
2220,
1110,
2220,
5,
0008,
98,
0,
#SCROLL 0.75
2,
2,
1,
11,
2,
2,
#SCROLL 1.00
11,
4,
#GOGOSTART
11,
1110,
22,
1002,
2001,
1,
1022,
21,
1022,
2,
21,
1110,
11,
22,
1110,
1110,
1111,
58,
#GOGOEND
1001,
2,
#END

COURSE:Normal
LEVEL:4
BALLOON:5
#START
#MEASURE 4/4
10010000,
0,
1001001000000000,
0,
11110000,
0,
1000101010010010,
0,
22,
1001001000200000,
10111020,
22202020,
11101020,
11101020,
1111,
5008,
10010000,
0,
1001001000000000,
0,
11110000,
0,
11,
1140,
1222,
10220200,
1222,
1002,
1222,
10101011,
00110104,
0,
2222,
2222,
2222,
2222,
1111,
1111,
1111,
1001004000000000,
1001004000000000,
0,
0,
#GOGOSTART
10101022,
00110102,
20220115,
00008022,
2002002000101010,
1001001000000010,
10111022,
0111,
10101022,
00110102,
20220115,
00008022,
2002002000101010,
1001001000000010,
10015000,
00800111,
#GOGOEND
10010000,
0,
1001001000000000,
0,
11110000,
0,
1000101010010010,
0,
20022020,
1111,
20011010,
20022020,
20202022,
10101011,
2222,
5858,
5858,
98,
0,
#SCROLL 0.75
22,
20000100,
1001,
11,
2002,
2,
#SCROLL 1.00
11,
4,
#GOGOSTART
10101022,
00110102,
20220115,
00008022,
2002002000101010,
1001001000000010,
10015000,
0801,
5811,
5081,
22,
1001001000200000,
10111020,
22202020,
11111020,
11111020,
1111,
5008,
#GOGOEND
30040011,
2,
#END
