TITLE:Vanaheimr
SUBTITLE:--SiLiS
WAVE:Vanaheimr.ogg
BPM:169
OFFSET:-2.170
DEMOSTART:101.297
MAKER:bol & Komi

COURSE:Oni
LEVEL:11.4
BALLOON:30,75
SCOREINIT:560
SCOREDIFF:0
#START
#BPMCHANGE 169
#MEASURE 3/4
112211211,
221211211,
221211211,
211211221,
212212211,
211211221,
221221222,
111211211,
112211211,
221211211,
221211211,
211211221,
212212211,
211211221,
221221222,
111212222,
1,
00000000
#SCROLL 2
2
#SCROLL 1.98
2
#SCROLL 1.96
1
#SCROLL 1.94
1,
#BARLINEOFF
#SCROLL 1.92
2
#SCROLL 1.9
2
#SCROLL 1.88
1
#SCROLL 1.86
1
#SCROLL 1.84
2
#SCROLL 1.82
1
#SCROLL 1.8
1
#SCROLL 1.78
1
#SCROLL 1.76
2
#SCROLL 1.74
1
#SCROLL 1.72
1
#SCROLL 1.7
1,
#SCROLL 1.68
2
#SCROLL 1.66
1
#SCROLL 1.64
1
#SCROLL 1.62
2
#SCROLL 1.6
2
#SCROLL 1.58
1
#SCROLL 1.56
1
#SCROLL 1.54
2
#SCROLL 1.52
2
#SCROLL 1.5
1
#SCROLL 1.45
1
#SCROLL 1.4
2,
#SCROLL 1
#BARLINEON
#BPMCHANGE 225
#MEASURE 4/4
3022102210221022,
1022102210221222,
1022102210221022,
1022102210221212,
1010102011101020,
1210102011111020,
11002200110022001100220011002200,
11001100110011002200220022002200,
2221222122212221,
2211221122112211,
2111211121112111,
2111211121112111,
1112111211121112,
2112211221122112,
2111221121221122,
202020202020202020202020100100100100100100100100,
#SCROLL 1.5
30030030,
#BARLINEOFF
#MEASURE 3/4
030033,
#MEASURE 4/4
30030030,
03003330,
#BARLINEON
30230230,
#MEASURE 3/4
#BARLINEOFF
230233,
#MEASURE 4/4
3022203020203020,
2030222030303020,
#BARLINEON
#SCROLL 1
2221222122212221,
#BARLINEOFF
#MEASURE 3/4
221122112211,
#MEASURE 4/4
2211211121112111,
2111211121112111,
#BARLINEON
1111111211121112,
#MEASURE 3/4
#BARLINEOFF
211121122112,
#MEASURE 4/4
2112211221112211,
#MEASURE 2/4
21122112,
2222222222,
#BARLINEON
#BPMCHANGE 225
#MEASURE 6/4
#SCROLL 0.75
100000000000100000
200000200000200111,
100000000000100000
200000200000200122,
100000000000100000
200000200000200111,
200000000000200000
100000100000200222,
#MEASURE 3/4
#SCROLL 0.75
200000000010101010102000010000,
200000000010101010102000010000,
200000000010101010102000010000,
200000000010101010102000010000,
100022112010,
222,
200000022000000000000000,
1,
#SCROLL 0.5
322,
112,
#SCROLL 0.6
102120,
202122,
#SCROLL 0.7
122,
112,
#SCROLL 0.8
202120,
112120,
#SCROLL 1.5
2
#SCROLL 1.45
2
#SCROLL 1.4
2
#SCROLL 1.35
2
#SCROLL 1.3
2
#SCROLL 1.25
2
#SCROLL 1.2
1
#SCROLL 1.15
1
#SCROLL 1.1
1
#SCROLL 1.05
1
#SCROLL 1
10,
#SCROLL 1.5
2
#SCROLL 1.45
2
#SCROLL 1.4
2
#SCROLL 1.35
2
#SCROLL 1.3
2
#SCROLL 1.25
1
#SCROLL 1.2
1
#SCROLL 1.15
1
#SCROLL 1.1
1
#SCROLL 1.05
1
#SCROLL 1
10,
#SCROLL 1.5
2
#SCROLL 1.45
2
#SCROLL 1.4
2
#SCROLL 1.35
2
#SCROLL 1.3
1
#SCROLL 1.25
1
#SCROLL 1.2
1
#SCROLL 1.15
1
#SCROLL 1.1
1
#SCROLL 1.05
1
#SCROLL 1
10,
#SCROLL 1.5
2
#SCROLL 1.45
2
#SCROLL 1.4
2
#SCROLL 1.35
1
#SCROLL 1.3
1
#SCROLL 1.25
1
#SCROLL 1.2
1
#SCROLL 1.15
1
#SCROLL 1.1
1
#SCROLL 1.05
1
#SCROLL 1
10,
#SCROLL 0.75
100012112020,
102120,
508,
111111111122,
#SCROLL 0.5
#MEASURE 6/4
111211211
221221211,
221211221
221211211,
111211111
222111122,
111211211
222111222,
#MEASURE 3/4
111211211,
221221211,
#SCROLL 0.6
212212212,
221221211,
#SCROLL 0.7
111211211,
211211221,
#SCROLL 0.8
211211222,
111211222,
#SCROLL 1
1,
#BARLINEOFF
#SCROLL 4
3,
,
9,
,
,
8,
#BARLINEON
#SCROLL 1
222122112111,
#SCROLL 1.2
#GOGOSTART
200000100100200000101010200000100100,
200000101010200000100100200000101010,
200000100100200000101010200000100100,
200000101010200000100100200200101010,
200000100100200000101010200000100100,
200000101010200000100100200000101010,
200000100100200000101010200000100100,
200200101010200200100100200200100100,
222122212211,
222122112111,
222122212211,
222121111122,
100000000020201010102000020000,
101120122012,
111121112111,
222212221222,
200000101010200000100100200000101010,
200000100100200000101010200000100100,
200000101010200000100100200000101010,
200000100100200000101010200200100100,
200000101010200000100100200000101010,
200000100100200000101010200000100100,
200000101010200000100100200000101010,
200200101010200200100100200200101010,
221121212111,
222121212111,
221121212111,
211121212111,
100000000020101010202000020000,
111211221222,
122112211222,
121212121210222200,
#GOGOEND
#SCROLL 1
121000000121000000,
212000000212000000,
12210000001221000000,
21120000002112000000,
#SCROLL 4
G00000000000
#SCROLL 1.25
202020100100200100100200,
100100100200100100200201010200200200,
#SCROLL 4
G00000000000
#SCROLL 1.5
202020200100200200100100,
200100100200100100202020100200200200,
#SCROLL 4
G0000
#SCROLL 2
2121212121,
#MEASURE 2/4
2121212121,
#BARLINEOFF
#MEASURE 1/4
2
#SCROLL 1.95
2
#SCROLL 1.9
2
#SCROLL 1.85
2,
#SCROLL 1.8
#BARLINEON
#MEASURE 3/4
2
#SCROLL 1.75
2
#SCROLL 1.7
2
#SCROLL 1.65
1
#SCROLL 1.6
2
#SCROLL 1.55
2
#SCROLL 1.5
1
#SCROLL 1.45
2
#SCROLL 1.4
2
#SCROLL 1.35
1
#SCROLL 1.3
2
#SCROLL 1.25
2,
#SCROLL 1.2
1
#SCROLL 1.15
2
#SCROLL 1.1
2
#SCROLL 1.05
1
#SCROLL 1
2
#SCROLL 0.95
2
#SCROLL 0.9
1
#SCROLL 0.85
2
#SCROLL 0.8
2
#SCROLL 0.75
1
#SCROLL 0.7
2
#SCROLL 0.6
1,
#SCROLL 0.5
1,
#BARLINEOFF
,
#SCROLL 0.375
2,
,
#SCROLL 0.25
7,
,
,
,
,
,
8,
,
#END

COURSE:Hard
LEVEL:10
BALLOON:19,39
SCOREINIT:1040
SCOREDIFF:0
#START
#BPMCHANGE 169
#MEASURE 3/4
122,
221200100,
221200200,
211200200,
1,
211,
202,
102,
122,
221200100,
221200200,
211200200,
1,
211,
202,
122,
1,
#SCROLL 1.3313609467
#BARLINEOFF
002,
020,
201011102010,
#SCROLL 1
#BPMCHANGE 225
#MEASURE 4/4
#BARLINEON
3111,
10101212,
1111,
12121011,
10101112,
11121112,
12121212,
11112222,
2220222022202220,
1110111011101110,
21212121,
21212121,
1110111011101110,
2220222022202220,
21212212,
5000008011111010,
30030030,
#MEASURE 3/4
030033,
#MEASURE 4/4
30030030,
03003330,
30230230,
#MEASURE 3/4
203000203030,
#MEASURE 4/4
3022203020203020,
2030222030303020,
2220222022202220,
#MEASURE 3/4
111011101110,
#MEASURE 4/4
1110201020102010,
21212121,
2010111011101110,
#MEASURE 3/4
111022202220,
#MEASURE 4/4
2220222020102010,
2000020000100002000020202020202000020000,
#MEASURE 6/4
101
222,
101
222,
101
222,
202
112,
#MEASURE 3/4
200011102010,
200011102010,
200011102010,
200011102010,
100020111010,
222,
200000022000000000000000,
1,
322,
112,
102120,
202122,
122,
112,
202120,
112120,
222020101110,
222020101110,
222010101110,
222010101110,
100011101020,
102120,
508,
508,
#MEASURE 6/4
100200200
221200100,
221200200
221200200,
100
211,
200000211
200100200,
#MEASURE 3/4
100200200,
221200100,
212200200,
221200200,
100211211,
200211200,
200200222,
100200222,
1,
3,
,
7,
,
,
8,
222022202220,
#GOGOSTART
200001000020001010002000010000,
200010100020000100002000101000,
200001000020001010002000010000,
200010100020000100002000101000,
200001000020001010002000010000,
200010100020000100002000101000,
200001000020001010002000010000,
200010100020000100002000010000,
222010102020,
222010102020,
222010102020,
222010102020,
100000000020001010101000020000,
102120,
112121,
112121,
200001000020001010002000010000,
200010100020000100002000101000,
200001000020001010002000010000,
200010100020000100002000101000,
200001000020001010002000010000,
200010100020000100002000101000,
200001000020001010002000010000,
200010100020000100002000010000,
222010102020,
222010102020,
222010102020,
222010102020,
100000000020001010101000020000,
102120,
112121,
112121,
#GOGOEND
33,
44,
33,
44,
350,
008,
450,
008,
400002020202020,
#MEASURE 2/4
22222,
#BARLINEOFF
#MEASURE 1/4
2220,
#MEASURE 3/4
#BARLINEON
222022202220,
111011101110,
1,
#BARLINEOFF
,
2,
,
7,
,
,
,
,
,
8,
,
#END

COURSE:Normal
LEVEL:7
BALLOON:12,15,20,35
SCOREINIT:1400
SCOREDIFF:0
#START
#BPMCHANGE 169
#MEASURE 3/4
122,
221,
222,
221,
2,
1,
202,
102,
122,
221,
222,
221,
2,
1,
202,
122,
1,
#SCROLL 1.3313609467
#BARLINEOFF
007,
,
008,
#SCROLL 1
#BPMCHANGE 225
#MEASURE 4/4
#BARLINEON
3111,
1111,
1111,
10101011,
10121012,
10121012,
12121210,
22222220,
10121012,
10121012,
10121212,
11112220,
10121012,
10121012,
4444,
50086008,
30030030,
#MEASURE 3/4
030033,
#MEASURE 4/4
30030030,
03003330,
30030030,
#MEASURE 3/4
030033,
#MEASURE 4/4
30030030,
03003330,
30230230,
#MEASURE 3/4
230233,
#MEASURE 4/4
30230230,
23023330,
30230230,
#MEASURE 3/4
230233,
#MEASURE 4/4
30230230,
23023332,
#MEASURE 6/4
102
222,
100
222,
100
222,
200
122,
#MEASURE 3/4
201120,
201120,
201120,
201120,
100222200,
222,
420,
1,
322,
112,
122,
112,
122,
112,
122,
111020,
222110,
221110,
222110,
221110,
100211200,
122,
508,
508,
#MEASURE 6/4
322
121,
212
121,
200
121,
202
112,
#MEASURE 3/4
122,
221,
222,
222,
122,
222,
200200222,
1,
1,
3,
,
7,
,
,
8,
444,
#GOGOSTART
321232,
123212,
321232,
123212,
321232,
123212,
321232,
123212,
222110,
221110,
222110,
221110,
100211200,
122,
508,
608,
321232,
123212,
321232,
123212,
321232,
123212,
321232,
123212,
222112,
221112,
222112,
221112,
100211200,
122,
508,
608,
#GOGOEND
33,
44,
33,
44,
350,
008,
450,
008,
490,
,
,
008,
1,
#BARLINEOFF
,
2,
,
7,
,
,
,
,
,
8,
,
#END

COURSE:Easy
LEVEL:4
BALLOON:10,12,15,30
SCOREINIT:2290
SCOREDIFF:0
#START
#BPMCHANGE 169
#MEASURE 3/4
1,
2,
1,
221,
1,
2,
1,
2,
1,
2,
1,
221,
1,
2,
1,
2,
1,
#SCROLL 1.3313609467
#BARLINEOFF
007,
,
008,
#SCROLL 1
#BPMCHANGE 225
#MEASURE 4/4
#BARLINEON
3110,
1110,
1110,
1111,
1110,
1110,
1110,
2222,
1110,
1110,
1111,
1110,
2220,
2220,
4444,
6008,
30030030,
#MEASURE 3/4
030030,
#MEASURE 4/4
30030030,
03003030,
30030030,
#MEASURE 3/4
030030,
#MEASURE 4/4
30030030,
03003030,
30030030,
#MEASURE 3/4
030030,
#MEASURE 4/4
30030030,
03003030,
30030030,
#MEASURE 3/4
030030,
#MEASURE 4/4
30030030,
03006080,
#MEASURE 6/4
100000
000011,
100000
000011,
100000
000011,
100000
000011,
#MEASURE 3/4
102,
102,
102,
102,
1,
222,
420,
1,
3,
011,
111,
111,
111,
111,
111,
111,
320,
320,
320,
320,
3,
422,
508,
608,
#MEASURE 6/4
3
2,
100
201,
1
2,
1
2,
#MEASURE 3/4
3,
011,
111,
111,
111,
111,
101,
508,
1,
3,
,
7,
,
,
8,
444,
#GOGOSTART
323,
232,
323,
232,
323,
232,
323,
232,
211,
211,
221,
212,
122,
122,
508,
608,
323,
232,
323,
232,
323,
232,
323,
232,
211,
211,
221,
212,
122,
122,
508,
608,
#GOGOEND
3,
4,
3,
4,
3,
,
4,
,
490,
,
,
008,
1,
#BARLINEOFF
,
2,
,
7,
,
,
,
,
,
8,
,
#END
