TITLE:Kernschmelze 256
TITLEJA:ケーンシュメルザ 256
SUBTITLE:--funkyzukin-Q
SUBTITLEJA:funkyzukin-Q
BPM:193.003
WAVE:Kernschmelze 256.ogg
OFFSET:-0.003
DEMOSTART:39.8117
MAKER:Dashy & DragonRatTiger

COURSE:Edit
LEVEL:9
STYLE:Single
BALLOON:40
SCOREINIT:
SCOREDIFF:
#START
#SCROLL 0.5
20,
02,
20000000,
00002001,
10100000,
01000000,
3030,
#SCROLL 0.6
3
#SCROLL 0.7
3
#SCROLL 0.8
3
#SCROLL 0.9
3,
#SCROLL 1
1120102011211022,
1120112012221020,
1120102011211022,
1120112012221020,
1121112011211021,
1120112111211020,
1121112011211021,
1120112111211020,
2111211121112111,
2111211121112111,
2111211121112111,
1121211121112111,
2111211121112111,
2111211121112111,
2111211121112111,
1121211121112111,
10010020,
2220,
30010020,
2220,
30010020,
20202001,
3010001030100011,
2111211121112111,
1021122010221120,
1120102011221122,
1021112010221220,
1120122012221122,
1021122010221120,
1120102012221222,
1021112010221220,
1120122012121210,
2112101121212211,
2111211121202121,
2121211010221010,
2111211121121121,
2020112010201122,
1122112212221222,
11112222,
101000101000202000202000100100200200100100200200,
10201120,
2020101012221000,
10201122,
1010102022201000,
10201120,
2020101012201010,
2211201010101020,
1120221021112000,
10201120,
2020101012221000,
10201122,
1010102022201000,
10201120,
2020101012201010,
2211201010101020,
1120221021112000,
1001,
10210120,
1010,
10210120,
#BPMCHANGE 222.013
G001,
G0210120,
G0G0,
GGGG,
#SECTION
#BRANCHSTART p,70,85
#M
#GOGOSTART
10201120,
2020101012221000,
10201122,
1010102022201000,
#E
#GOGOSTART
10201120,
2020101022201000,
10201122,
11122210,
#N
#GOGOSTART
10201120,
22112010,
10201122,
1121,
#SECTION
#BRANCHSTART p,70,85
#M
10201120,
2020101012201010,
2211201010101020,
1120221021112580,
#E
10201120,
22112211,
11211112,
1110111022205080,
#N
10201120,
22112210,
11102220,
10102058,
#SECTION
#BRANCHSTART p,70,85
#M
10201120,
2020101012221000,
10201122,
1010102022201000,
#E
10201120,
2020101022201000,
10201122,
11122210,
#N
10201120,
22112010,
10201122,
1121,
#SECTION
#BRANCHSTART p,70,85
#M
10201120,
2020101012201010,
2211201010101020,
1120221021112580,
#E
10201120,
2020101022201010,
1110201010101020,
1110111022205080,
#N
10201120,
22112210,
11102220,
10102058,
#BRANCHEND
#BPMCHANGE 213.05
#SCROLL 1.04208
30303330,
3020303030203021,
21212
#GOGOEND
#BARLINEOFF
#SCROLL 4
90000000000,
,
00000800,
#END
STYLE:Double
BALLOON:40
SCOREINIT:
SCOREDIFF:
#START P1
#SCROLL 0.5
00,
00,
00000000,
00000001,
10100000,
01000000,
3000,
#SCROLL 0.6
3
#SCROLL 0.7
0
#SCROLL 0.8
3
#SCROLL 0.9
0,
#SCROLL 1
1120102011211022,
1120112012221020,
1120102011211022,
1120112012221020,
1121112011211021,
1120112111211020,
1121112011211021,
1120112111211020,
2111200021112000,
2111211121112000,
2111200021112000,
0021211121112000,
0000211120002111,
2000000000002111,
2000211120002111,
1120000000002111,
10010020,
2220,
30010020,
2220,
30010020,
20202000,
0000001030100011,
2111211121112111,
1021122010221120,
1120102011221122,
1021112010221220,
1120122012221122,
1021122010221120,
1120102012221222,
1021112010221220,
1120122012121210,
2112101121212211,
2111211121202121,
2121211010221010,
2111211121121121,
2020112010201122,
1122112212221222,
11112222,
101000000000202000000000100100200200100100200200,
10201120,
2020101012221000,
10201122,
1010102022201000,
10201120,
2020101012201010,
2211201010101020,
1120221021112000,
10201120,
2020101012221000,
10201122,
1010102022201000,
10201120,
2020101012201010,
2211201010101020,
1120221021112000,
1001,
10210000,
1010,
10000120,
#BPMCHANGE 222.013
G001,
G0000120,
00G0,
0G0G,
#SECTION
#BRANCHSTART p,70,85
#M
#GOGOSTART
10201120,
2020101012221000,
10201122,
1010102022201000,
#E
#GOGOSTART
10201120,
2020101022201000,
10201122,
11122210,
#N
#GOGOSTART
10201120,
22112010,
10201122,
1121,
#SECTION
#BRANCHSTART p,70,85
#M
10201120,
2020101012201010,
2211201010101020,
1120221021112580,
#E
10201120,
22112211,
11211112,
1110111022205080,
#N
10201120,
22112210,
11102220,
10102058,
#SECTION
#BRANCHSTART p,70,85
#M
10201120,
2020101012221000,
10201122,
1010102022201000,
#E
10201120,
2020101022201000,
10201122,
11122210,
#N
10201120,
22112010,
10201122,
1121,
#SECTION
#BRANCHSTART p,70,85
#M
10201120,
2020101012201010,
2211201010101020,
1120221021112580,
#E
10201120,
2020101022201010,
1110201010101020,
1110111022205080,
#N
10201120,
22112210,
11102220,
10102058,
#BRANCHEND
#BPMCHANGE 213.05
#SCROLL 1.04208
30303330,
3020303030203021,
21212
#GOGOEND
#BARLINEOFF
#SCROLL 4
90000000000,
,
00000800,
#END
#START P2
#SCROLL 0.5
20,
02,
20000000,
00002000,
00000000,
00000000,
0030,
#SCROLL 0.6
0
#SCROLL 0.7
3
#SCROLL 0.8
0
#SCROLL 0.9
3,
#SCROLL 1
1120102011211022,
1120112012221020,
1120102011211022,
1120112012221020,
1121112011211021,
1120112111211020,
1121112011211021,
1120112111211020,
0000211120002111,
2000000000002111,
2000211120002111,
1120000000002111,
2111200021112000,
2111211121112000,
2111200021112000,
0021211121112000,
10010020,
2220,
30010020,
2220,
30010020,
20202001,
3010000000000011,
2111211121112111,
1021122010221120,
1120102011221122,
1021112010221220,
1120122012221122,
1021122010221120,
1120102012221222,
1021112010221220,
1120122012121210,
2112101121212211,
2111211121202121,
2121211010221010,
2111211121121121,
2020112010201122,
1122112212221222,
11112222,
000000101000000000202000100100200200100100200200,
10201120,
2020101012221000,
10201122,
1010102022201000,
10201120,
2020101012201010,
2211201010101020,
1120221021112000,
10201120,
2020101012221000,
10201122,
1010102022201000,
10201120,
2020101012201010,
2211201010101020,
1120221021112000,
1001,
10000120,
1010,
10210000,
#BPMCHANGE 222.013
G001,
G0210000,
G000,
G0G0,
#SECTION
#BRANCHSTART p,70,85
#M
#GOGOSTART
10201120,
2020101012221000,
10201122,
1010102022201000,
#E
#GOGOSTART
10201120,
2020101022201000,
10201122,
11122210,
#N
#GOGOSTART
10201120,
22112010,
10201122,
1121,
#SECTION
#BRANCHSTART p,70,85
#M
10201120,
2020101012201010,
2211201010101020,
1120221021112580,
#E
10201120,
22112211,
11211112,
1110111022205080,
#N
10201120,
22112210,
11102220,
10102058,
#SECTION
#BRANCHSTART p,70,85
#M
10201120,
2020101012221000,
10201122,
1010102022201000,
#E
10201120,
2020101022201000,
10201122,
11122210,
#N
10201120,
22112010,
10201122,
1121,
#SECTION
#BRANCHSTART p,70,85
#M
10201120,
2020101012201010,
2211201010101020,
1120221021112580,
#E
10201120,
2020101022201010,
1110201010101020,
1110111022205080,
#N
10201120,
22112210,
11102220,
10102058,
#BRANCHEND
#BPMCHANGE 213.05
#SCROLL 1.04208
30303330,
3020303030203021,
21212
#GOGOEND
#BARLINEOFF
#SCROLL 4
90000000000,
,
00000800,
#END

COURSE:Oni
LEVEL:10.7
BALLOON:1,2
SCOREINIT:
SCOREDIFF:0
#START
#BPMCHANGE 193.003
#SCROLL 0.7
10101011,
0122,
10101211,
0122102
#SCROLL 1.5
#GOGOSTART
3,
3
#GOGOEND
0
#GOGOSTART
3
#GOGOEND
#SCROLL 0.7
01121,
#SCROLL 1.5
03
#SCROLL 0.7
221120,
#SCROLL 1.5
#GOGOSTART
3
#GOGOEND
#SCROLL 0.7
0212010
#SCROLL 1.5
#GOGOSTART
3
#GOGOEND
#SCROLL 0.7
0212210,
#SCROLL 1.5
#GOGOSTART
30
#GOGOEND
#SCROLL 0.75
20
#SCROLL 1.5
#GOGOSTART
30
#SCROLL 0.8
#GOGOEND
20
#SCROLL 1.5
#GOGOSTART
30
#GOGOEND
#SCROLL 0.9
22
#GOGOSTART
1111,
#GOGOEND
#SCROLL 1
1020122010221120,
1120112012221220,
1022102211021022,
1120112212022011,
1022102210121220,
1102112012221120,
1022102210121220,
301020111210
#SCROLL 8.88
7008,
#SCROLL 1
1112102211121022,
1120122011221011,
1212102212221012,
1102120212221110,
1112102211121022,
1120122011221011,
1212102212221012,
10001000102020201010202011101000,
#GOGOSTART
#SCROLL 2
3
#GOGOEND
#SCROLL 1
22
#GOGOSTART
#SCROLL 2
3
#GOGOEND
#SCROLL 1
2020,
2222,
#SCROLL 2
#GOGOSTART
3
#SCROLL 1
#GOGOEND
22
#SCROLL 2
#GOGOSTART
3
#GOGOEND
#SCROLL 1
2020,
20202022,
#GOGOSTART
#SCROLL 2
3
#GOGOEND
#SCROLL 1
12
#GOGOSTART
#SCROLL 2
3
#GOGOEND
#SCROLL 1
1221,
2011211020012010,
3010201211212011,
200100100100200100100100200100100100202020200200,
#GOGOSTART
1022101212201220,
1122102012221220,
1020102112211022,
1012102211011011,
1022102112211022,
1221102212212210,
2010001011101022,
1002102210212210,
1202101102212120,
2211221122212212,
1121201121212010,
2221221121222120,
1221221112121121,
2211221121212210,
1122211221112111,
1010101112221110,
#GOGOEND
#SCROLL 0.5
30201120,
2022101012201000,
1000200010112022,
1010102212101000,
1000200010112000,
2022101012201022,
2010221010111020,
1120202122112000,
#SCROLL 1
1002102210121020,
1202102210121010,
1012102211021022,
100000100200100000200100200200100100100000202020,
1012102211021020,
100200000200100000200200100000100200102020200000,
1122122011121022,
100100200000100000200200100100200100202020100000,
#BPMCHANGE 193.033
#SCROLL 0.888
3010200200102000,
3010203000112000,
3010200030102012,
1010201011102000,
#BPMCHANGE 222.01299999999998
#GOGOSTART
#SCROLL 2
3
#GOGOEND
#SCROLL 0.8
010200210112000,
#SCROLL 2.5
#GOGOSTART
3
#GOGOEND
#SCROLL 0.85
010201210102000,
#SCROLL 3
#GOGOSTART
3
#GOGOEND
#SCROLL 0.9
0000010
#GOGOSTART
#SCROLL 4
3
#GOGOEND
#SCROLL 0.9
0010010,
#GOGOSTART
#SCROLL 5
3
#SCROLL 0.95
020
#GOGOSTART
#SCROLL 6
3
#GOGOEND
#SCROLL 0.95
020
#GOGOSTART
#SCROLL 7
30
#SCROLL 0.95
22
#SCROLL 0.96
#GOGOSTART
1
#SCROLL 0.97
#GOGOEND
1
#SCROLL 0.98
#GOGOSTART
1
#SCROLL 0.99
#GOGOEND
1,
#GOGOSTART
#SCROLL 1.05
1011201112112011,
1011221010112022,
1022102212101220,
1122102210121222,
1011202121102022,
1011201212102011,
1120122212112011,
100000100100200000200100200200100100200200202020,
1011201112112011,
1011221010112022,
1022102212101220,
1122102210121222,
1011202121102022,
1011201212102011,
1120122212112211,
10010020020010010020020010101020020010101020202
#GOGOEND
0,
#BPMCHANGE 213.05
#SCROLL 1.1
#GOGOSTART
2
4
#GOGOEND
1
#GOGOSTART
44
#GOGOEND
1
#GOGOSTART
44,
#GOGOEND
10
#GOGOSTART
4040
#GOGOEND
10
#GOGOSTART
4
#GOGOEND
01110
#GOGOSTART
4
#GOGOEND
0,
100100101010
#MEASURE 0.0000000000000000000256/0.000000000000000000256
#BPMCHANGE 8.888
700000800000000000000000000000000000,
#END

COURSE:Hard
LEVEL:8
BALLOON:2
SCOREINIT:
SCOREDIFF:0
#START
#BPMCHANGE 193.003
#SCROLL 0.8
10101011,
0222,
10101011,
01102013,
30301022,
01101020,
#SCROLL 0.9
33,
#SCROLL 1
3000300030001111,
10101212,
1020102022202220,
1000101110201020,
1020102011011010,
10101212,
1020102010222020,
1000102010111010,
3,
1011100010111000,
1011101020222000,
1011100010111000,
1011101020222020,
1011100010111000,
1011101020222000,
1011100010111000,
1011101020222220,
30030020,
2220,
30030020,
20202021,
30030020,
20202223,
30033003,
3333,
#GOGOSTART
1011102000222020,
12124040,
1020102011101020,
12124040,
1011102000222020,
12124040,
2010201020111020,
1020102020222020,
1101101101102000,
2220222011102020,
1111101022222020,
1110222011102000,
1011011010102020,
1110111022202000,
1111100022222000,
1110111011011010,
#GOGOEND
#SCROLL 0.8
10201120,
2011101010201000,
1000200010102011,
1010202011111000,
10201120,
2022201011102010,
2011102010102000,
1110202010222000,
#SCROLL 1
1001102010011020,
1001102010111000,
1011102010111020,
1020102010222000,
1001102010011020,
1001102010111000,
1011102010111020,
1020102010222220,
#BPMCHANGE 193.033
3003,
30030030,
33,
30030010,
#BPMCHANGE 222.01299999999998
#SCROLL 0.85
3111,
#SCROLL 0.9
3111,
#SCROLL 1
3131,
30306008,
#GOGOSTART
10201120,
11221120,
11201122,
1000201000102220,
10201120,
11221120,
11221122,
1020102010101110,
10201120,
11221120,
11201122,
1000201000102220,
10201120,
11221120,
11221122,
1020102011101010,
#BPMCHANGE 213.05
#GOGOEND
33033033,
03303003,
0000
700080000000,
#END

COURSE:Normal
LEVEL:7
BALLOON:3,2
SCOREINIT:
SCOREDIFF:0
#START
#SCROLL 0.95
#BPMCHANGE 193.00333028077765
10001011,
02,
10001011,
02,
3302,
03001020,
33,
30303011,
1111,
10121022,
1111,
1000100010010010,
1111,
10121022,
10121110,
3,
11102220,
11112020,
11102220,
11112020,
11102220,
11112020,
11101110,
1010101010010010,
30030020,
2220,
30030020,
2220,
30030020,
20202003,
30033003,
3368,
#GOGOSTART
11120222,
02204040,
12020212,
02104040,
11120212,
02202222,
0010001010010010,
11117008,
1001001000102000,
22221110,
11102220,
11201120,
1001001010102000,
11102220,
11102220,
1010101010010010,
#GOGOEND
#SCROLL 0.7
10201120,
21101210,
10201120,
11221010,
10201120,
22211020,
21101120,
11201220,
#SCROLL 0.95
10121012,
10121110,
10121012,
10121040,
10121012,
10121110,
11101110,
1168,
#BPMCHANGE 193.033
3003,
30030030,
33,
30030010,
#BPMCHANGE 222.01299999999998
#SCROLL 0.8
3,
3,
#SCROLL 0.9
33,
30306008,
#GOGOSTART
1212,
11201020,
1212,
11201120,
1212,
1212,
11201120,
10101111,
1212,
10201120,
1212,
10222020,
1212,
10201120,
1212,
11111110,
#GOGOEND
#BPMCHANGE 213.05
30030030,
03003003,
0000
700000008000,
#END

COURSE:Easy
LEVEL:5
BALLOON:3,1
SCOREINIT:
SCOREDIFF:0
#START
#BPMCHANGE 193.003
#SCROLL 0.9
3,
0,
0,
0,
3,
03000000,
33,
3330,
1111,
1110,
1111,
14,
1111,
1110,
1110,
3,
1122,
1122,
1122,
1122,
1122,
1122,
1110,
1111,
30030000,
0,
30030000,
0,
30030020,
2220,
33,
3368,
#GOGOSTART
10020202,
0244,
1111,
1044,
10020202,
02002040,
01011010,
10107008,
10010020,
2211,
1122,
1212,
1112,
1122,
1122,
1110,
#GOGOEND
#SCROLL 0.7
1202,
0202,
1202,
0220,
1202,
0202,
1122,
1230,
#SCROLL 0.9
1111,
10101110,
1111,
1122,
1111,
10101110,
10100100,
1168,
#BPMCHANGE 193.033
3,
3,
33,
3,
#SCROLL 0.7
#BPMCHANGE 222.01299999999998
3,
3,
#SCROLL 0.8
33,
6008,
#GOGOSTART
1111,
1110,
1111,
1110,
1110,
1110,
1111,
1140,
1212,
1212,
1210,
58,
1212,
1212,
1212,
1111,
#GOGOEND
#BPMCHANGE 213.05
3003,
00003003,
0000
700000000800,
#END
