TITLE:Scarlet Mirage
SUBTITLE:--DashyDesu
BPM:308
WAVE:Scarlet Mirage.ogg
OFFSET:-0.027
DEMOSTART:49.897
PREIMAGE:Scarlet Mirage.png
LYRICS:Scarlet Mirage.vtt
SCOREMODE:2
MAKER:Dashy & bol

COURSE:Oni
LEVEL:11.3
BALLOON:
SCOREINIT:630
SCOREDIFF:0
#START
#BPMCHANGE 308
#SCROLL 0.75
200202200202,
200202200202,
200202200202,
200202200202,
200202200202,
200202200202,
200202200202,
200202111202,
21121121,
2010102010102011,
21121121,
2010102010111010,
21121121,
2010102010102011,
21121121,
200100100200100102200100,
200202200202,
200202200202,
200202200202,
200202200202,
200202200202,
200202200202,
200202200202,
200202111202,
21121121,
2010102010102011,
21121121,
2010102010111010,
21121121,
2010102010102011,
21121121,
200100100200100100101010,
#GOGOSTART
101201101202,
101201111201,
102102100222,
122102101222,
101201101202,
101201111202,
122122122122,
111222112112,
101201101202,
101201111201,
102102100222,
122102101222,
101201101202,
101201111202,
122101122121,
111222112112,
#GOGOEND
1122,
1211,
1122,
1122,
2112,
2112,
1122,
100100101101,
100202100202,
101200100200,
100202100202,
101200101200,
100202100202,
101200101222,
100102202202,
100000001000200000002000100100100100100010001000,
#GOGOSTART
100201101202,
101201001200,
100202101201,
101201102200,
100201101201,
101202111200,
302203002300,
101202122112,
100201101202,
101201101200,
100202101201,
101201102202,
100201101201,
100000001000200100002000100010001000200000002000,
201102201102,
122122112112,
100201101202,
101201001200,
100202101201,
101201102200,
100201101201,
101202111222,
102202102202,
102122121102,
#GOGOEND
1222,
100200200202,
1222,
100200202202,
1222,
101101101101,
#GOGOSTART
102201202102,
2012021
#SCROLL 0.70833333333
1
#SCROLL 0.66666666667
1
#SCROLL 0.625
1
#SCROLL 0.58333333333
1
#SCROLL 0.54166666667
1,
#GOGOEND
#MEASURE 8/4
#SCROLL 0.5
10
#SCROLL 0.49
1
#SCROLL 0.48
200
#SCROLL 0.47
100
#SCROLL 0.46
200
#SCROLL 0.45
10
#SCROLL 0.44
1
#SCROLL 0.43
200
#SCROLL 0.42
100
#SCROLL 0.41
20
#SCROLL 0.42
1,
#SCROLL 0.43
10
#SCROLL 0.44
1
#SCROLL 0.45
200
#SCROLL 0.46
100
#SCROLL 0.47
200
#SCROLL 0.48
10
#SCROLL 0.49
1
#SCROLL 0.48
20
#SCROLL 0.47
1
#SCROLL 0.46
10
#SCROLL 0.45
2
#SCROLL 0.44
200,
#SCROLL 0.43
10
#SCROLL 0.42
1
#SCROLL 0.41
200
#SCROLL 0.42
100
#SCROLL 0.43
200
#SCROLL 0.44
10
#SCROLL 0.45
1
#SCROLL 0.46
200
#SCROLL 0.47
100
#SCROLL 0.48
20
#SCROLL 0.49
1,
#SCROLL 0.48
10
#SCROLL 0.47
1
#SCROLL 0.46
200
#SCROLL 0.45
100
#SCROLL 0.44
200
#SCROLL 0.43
10
#SCROLL 0.42
1
#SCROLL 0.41
20
#SCROLL 0.42
1
#SCROLL 0.43
10
#SCROLL 0.44
2
#SCROLL 0.45
20
#SCROLL 0.46
2,
#SCROLL 0.47
10
#SCROLL 0.48
1
#SCROLL 0.49
200
#SCROLL 0.48
100
#SCROLL 0.47
200
#SCROLL 0.46
10
#SCROLL 0.45
1
#SCROLL 0.44
200
#SCROLL 0.43
10
#SCROLL 0.42
2
#SCROLL 0.41
20
#SCROLL 0.42
1,
#SCROLL 0.43
10
#SCROLL 0.44
1
#SCROLL 0.45
20
#SCROLL 0.46
1
#SCROLL 0.47
100
#SCROLL 0.48
200
#SCROLL 0.49
10
#SCROLL 0.48
1
#SCROLL 0.47
20
#SCROLL 0.46
1
#SCROLL 0.45
10
#SCROLL 0.44
2
#SCROLL 0.43
20
#SCROLL 0.42
2,
#SCROLL 0.41
10
#SCROLL 0.42
1
#SCROLL 0.43
200
#SCROLL 0.44
100
#SCROLL 0.45
200
#SCROLL 0.46
10
#SCROLL 0.47
1
#SCROLL 0.48
200
#SCROLL 0.49
10
#SCROLL 0.48
1
#SCROLL 0.47
20
#SCROLL 0.46
1,
#SCROLL 0.45
10
#SCROLL 0.44
1
#SCROLL 0.43
200
#SCROLL 0.42
1
#SCROLL 0.41
1
#SCROLL 0.42
1
#SCROLL 0.43
200
#SCROLL 0.44
10
#SCROLL 0.45
1
#SCROLL 0.46
20
#SCROLL 0.47
1
#SCROLL 0.48
10
#SCROLL 0.49
2
#SCROLL 0.48
2
#SCROLL 0.47
2
#SCROLL 0.46
2,
#SCROLL 0.75
10
#SCROLL 0.74
1
#SCROLL 0.73
20
#SCROLL 0.72
1
#SCROLL 0.71
10
#SCROLL 0.7
2
#SCROLL 0.69
10
#SCROLL 0.68
2
#SCROLL 0.67
1
#SCROLL 0.66
1
#SCROLL 0.67
1
#SCROLL 0.68
20
#SCROLL 0.69
1
#SCROLL 0.7
10
#SCROLL 0.71
2
#SCROLL 0.72
10
#SCROLL 0.73
2,
#SCROLL 0.74
10
#SCROLL 0.73
1
#SCROLL 0.72
20
#SCROLL 0.71
1
#SCROLL 0.7
10
#SCROLL 0.69
2
#SCROLL 0.68
10
#SCROLL 0.67
2
#SCROLL 0.66
1
#SCROLL 0.67
1
#SCROLL 0.68
1
#SCROLL 0.69
20
#SCROLL 0.7
1
#SCROLL 0.71
10
#SCROLL 0.72
2
#SCROLL 0.73
1
#SCROLL 0.74
2
#SCROLL 0.73
2,
#SCROLL 0.72
10
#SCROLL 0.71
1
#SCROLL 0.7
20
#SCROLL 0.69
1
#SCROLL 0.68
10
#SCROLL 0.67
2
#SCROLL 0.66
10
#SCROLL 0.67
2
#SCROLL 0.68
1
#SCROLL 0.69
1
#SCROLL 0.7
1
#SCROLL 0.71
20
#SCROLL 0.72
1
#SCROLL 0.73
10
#SCROLL 0.74
2
#SCROLL 0.73
10
#SCROLL 0.72
2,
#SCROLL 0.71
10
#SCROLL 0.7
1
#SCROLL 0.69
20
#SCROLL 0.68
1
#SCROLL 0.67
10
#SCROLL 0.66
2
#SCROLL 0.67
10
#SCROLL 0.68
2
#SCROLL 0.69
1
#SCROLL 0.7
1
#SCROLL 0.71
1
#SCROLL 0.72
20
#SCROLL 0.73
1
#SCROLL 0.74
10
#SCROLL 0.73
2
#SCROLL 0.72
1
#SCROLL 0.71
2
#SCROLL 0.7
2,
#SCROLL 0.69
1
#SCROLL 0.68
1
#SCROLL 0.67
1
#SCROLL 0.66
20
#SCROLL 0.67
1
#SCROLL 0.68
10
#SCROLL 0.69
2
#SCROLL 0.7
10
#SCROLL 0.71
2
#SCROLL 0.72
1
#SCROLL 0.73
1
#SCROLL 0.74
1
#SCROLL 0.73
2
#SCROLL 0.72
2
#SCROLL 0.71
2
#SCROLL 0.7
10
#SCROLL 0.69
2
#SCROLL 0.68
10
#SCROLL 0.67
2,
#SCROLL 0.66
10
#SCROLL 0.67
1
#SCROLL 0.68
20
#SCROLL 0.69
1
#SCROLL 0.7
10
#SCROLL 0.71
2
#SCROLL 0.72
1
#SCROLL 0.73
2
#SCROLL 0.74
2
#SCROLL 0.73
1
#SCROLL 0.72
1
#SCROLL 0.71
1
#SCROLL 0.7
20
#SCROLL 0.69
1
#SCROLL 0.68
10
#SCROLL 0.67
2
#SCROLL 0.66
1
#SCROLL 0.67
2
#SCROLL 0.68
2,
#SCROLL 0.69
1
#SCROLL 0.7
1
#SCROLL 0.71
1
#SCROLL 0.72
20
#SCROLL 0.73
1
#SCROLL 0.74
10
#SCROLL 0.73
2
#SCROLL 0.72
10
#SCROLL 0.71
2
#SCROLL 0.7
1
#SCROLL 0.69
1
#SCROLL 0.68
1
#SCROLL 0.67
2
#SCROLL 0.66
2
#SCROLL 0.67
2
#SCROLL 0.68
10
#SCROLL 0.69
2
#SCROLL 0.7
10
#SCROLL 0.71
1,
#SCROLL 0.72
2000
#SCROLL 0.73
1000
#SCROLL 0.74
1000
#SCROLL 0.73
1000
#SCROLL 0.72
1000
#SCROLL 0.71
1000
#SCROLL 0.7
2000
#SCROLL 0.69
1000
#SCROLL 0.68
1000
#SCROLL 0.67
2000
#SCROLL 0.66
2000
#SCROLL 0.65
1000
#SCROLL 0.64
200
#SCROLL 0.6375
100
#SCROLL 0.635
200
#SCROLL 0.6325
100
#SCROLL 0.63
200
#SCROLL 0.6275
100
#SCROLL 0.625
100
#SCROLL 0.6225
100
#SCROLL 0.62
200
#SCROLL 0.6175
200
#SCROLL 0.615
200
#SCROLL 0.6125
200
#SCROLL 0.61
200
#SCROLL 0.6075
200
#SCROLL 0.605
200
#SCROLL 0.6025
200,
#SCROLL 0.6
#MEASURE 16/4
,
#MEASURE 4/4
00200200,
22,
1022,
12,
00200200,
20002022,
10002022,
12,
#SCROLL 0.7
1022,
2022,
1022,
2000002220002000,
#SCROLL 0.8
1022,
2022,
1022,
200000201200,
#SCROLL 1.2
211211221221,
222111221221,
#SCROLL 1
#GOGOSTART
100201101202,
100010200010000011200000,
100202101201,
101201102222,
100201101201,
101202111200,
300022200030000020300000,
101202122112,
100201101202,
100010200010100011200000,
100202101201,
100010200010100022200020,
100201101201,
101202111202,
201102201102,
102020102020101020101022,
100201211201,
201201211221,
201201221201,
201010200010201011202020,
200201211201,
201201211221,
201201221201,
200010001000200000001010200200100100200200100100,
#GOGOEND
12,
1021,
12,
100100200222,
12,
100100202202,
#GOGOSTART
100020002000100200200200,
100200200200200200200200100000004000000040000000,
#GOGOEND
,
,
,
,
#END

COURSE:Hard
LEVEL:9
BALLOON:88,88,88,88
SCOREINIT:1150
SCOREDIFF:0
#START
#BPMCHANGE 308
#SCROLL 0.65
2222,
2222,
2222,
2222,
2222,
2222,
2222,
200200101202,
20120120,
20120120,
20120120,
2000102000111000,
20120120,
20120120,
20120120,
20120120,
2222,
2222,
2222,
2222,
2222,
2222,
2222,
200200101202,
20120120,
20120120,
20120120,
20120110,
20120120,
20120120,
20120120,
11101110,
#GOGOSTART
100200101200,
100201001200,
100200101200,
100200111100,
100200101200,
100201001200,
100200101200,
200102001200,
100200101200,
100201001200,
100200101200,
100200111100,
100200101200,
100201001200,
100200101200,
200102001200,
#GOGOEND
1111,
1111,
1111,
1111,
2222,
2222,
2222,
200200202100,
1212,
101200100100,
1212,
100200101100,
100200101200,
101200400400,
100202202202,
5008,
#GOGOSTART
100200101200,
101200101200,
100200101200,
101200101200,
100200101200,
101200101200,
300003000600,
08,
100200101200,
101200101200,
100200101200,
101200101200,
100200101200,
101200101202,
5008,
122122,
100200101200,
101200101200,
100200101200,
101200101200,
100200101200,
101200101200,
300004000600,
08,
#GOGOEND
1120,
1120,
1120,
1120,
11,
100101101100,
#GOGOSTART
1212,
5008,
#GOGOEND
#MEASURE 8/4
#SCROLL 0.5
#BARLINEOFF
9,
,
,
0000000000000008,
9,
,
,
0000000000000008,
9,
,
,
0000000000000008,
9,
,
,
0000000000000008,
#MEASURE 16/4
,
#BARLINEON
#MEASURE 8/4
00200200
20000000,
2
2,
00200200
20000000,
2
2,
1010
0012,
0010
0012,
0010
0012,
0010
0012,
#SCROLL 1
400400400400
101101101100,
#MEASURE 4/4
#SCROLL 0.75
#GOGOSTART
100200101200,
101200101200,
100200101200,
101200101100,
100200101200,
101200101200,
100201002500,
08,
100200101200,
101200101200,
100200101200,
101200101200,
100200101200,
101200101201,
5008,
122122,
100200201200,
101200201200,
100200201200,
101200201100,
100200201200,
101200201200,
100201002500,
08,
#GOGOEND
1121,
100101200111,
1121,
100101200222,
12,
100100202100,
#GOGOSTART
200010001000200100100100,
200000100100100000100000400000004000000040000000,
#GOGOEND
,
,
,
,
#END

COURSE:Normal
LEVEL:7
BALLOON:88,88,88,88
SCOREINIT:1580
SCOREDIFF:0
#START
#BPMCHANGE 308
#SCROLL 0.65
2220,
2220,
2220,
2220,
2220,
2220,
2220,
2212,
20020020,
20020020,
20020020,
20020110,
20020020,
20020020,
20020020,
20020020,
2220,
2220,
2220,
2220,
2220,
2220,
2220,
2212,
20020020,
20020020,
20020020,
20020110,
20020020,
20020020,
20020020,
11101000,
#GOGOSTART
1212,
1212,
1212,
10201110,
1212,
1212,
1212,
20120120,
1212,
1212,
1212,
10201110,
1212,
1212,
1212,
20120120,
#GOGOEND
1110,
1110,
1110,
1110,
2220,
2220,
2220,
2221,
3202,
1201,
3202,
1201,
3202,
1244,
3044,
6008,
#GOGOSTART
1212,
1212,
1212,
1212,
1212,
1212,
300003000600,
08,
1212,
1212,
1212,
1212,
1110,
2220,
5008,
111111,
1212,
1212,
1212,
1212,
1212,
1212,
400004000600,
08,
#GOGOEND
12,
12,
12,
12,
11,
1133,
#GOGOSTART
1212,
5008,
#GOGOEND
#MEASURE 8/4
#SCROLL 0.5
#BARLINEOFF
9,
,
,
0000000000000008,
9,
,
,
0000000000000008,
9,
,
,
0000000000000008,
9,
,
,
0000000000000008,
#MEASURE 16/4
,
#BARLINEON
#MEASURE 8/4
00200200
20000000,
2
2,
00200200
20000000,
2
2,
1010
0012,
0010
0012,
0010
0012,
0010
0012,
#SCROLL 1
4444
5008,
#MEASURE 4/4
#SCROLL 0.75
#GOGOSTART
1212,
1212,
1212,
1212,
1212,
1212,
300003000600,
08,
1212,
1212,
1212,
1212,
1111,
2222,
5008,
111111,
1222,
1222,
1222,
1221,
1222,
1222,
400004000600,
08,
#GOGOEND
12,
12,
12,
12,
11,
1033,
#GOGOSTART
2121,
400300404040,
#GOGOEND
,
,
,
,
#END

COURSE:Easy
LEVEL:5
BALLOON:2,1,5,13,18,15,20,19,7,9,20,5,12,18,1,3,19,8,8,8,88
SCOREINIT:2970
SCOREDIFF:0
#START
#BPMCHANGE 308
#SCROLL 0.5
#MEASURE 8/4
22
22,
22
22,
22
22,
22
22,
2002
2002,
2002
2000,
2002
2002,
2002
2002,
22
22,
22
22,
22
22,
22
22,
2002
2002,
2002
2000,
2002
2002,
2002
5080,
#GOGOSTART
11
11,
11
10,
22
22,
22
20,
11
11,
11
10,
22
22,
22
20,
#GOGOEND
3 ,
,
,
,
3202
0200,
3202
0200,
3202
5080,
36
08,
#GOGOSTART
10000010
10010010,
00000020
20020020,
0001
1010,
30030030
00001000,
10000010
10010010,
00000020
20020020,
01
22,
1005
0080,
10000010
10010010,
00000020
20020020,
0001
1010,
40040040
00002000,
#GOGOEND
10
22,
10
22,
10
22,
#GOGOSTART
5000
0008,
#GOGOEND
#SCROLL 2
#BARLINEOFF
7000000000000008,
7000000000000008,
7000000000000008,
7000000000000008,
7000000000000008,
7000000000000008,
7000000000000008,
7000000000000008,
7000000000000008,
7000000000000008,
7000000000000008,
7000000000000008,
7000000870000008,
7000000870000008,
7000000870000008,
7000000870000008,
#MEASURE 16/4
,
#SCROLL 0.5
#BARLINEON
#MEASURE 8/4
,
,
,
,
11
01,
01
01,
01
01,
01
01,
#SCROLL 1
6008,
#SCROLL 0.5
#GOGOSTART
10000010
10010010,
00000020
20020020,
0001
1010,
30030030
00001000,
10000010
10010010,
00000020
20020020,
01
22,
1005
0080,
10000010
10010010,
00000020
20020020,
0001
1010,
40040040
00002000,
#GOGOEND
10
22,
10
22,
10
22,
#GOGOSTART
7 ,
#GOGOEND
8,
,
#END
