TITLE:Re:Cøllapse
SUBTITLE:--H888. (H5 + DashyDesu)
BPM:215
WAVE:Re:Cøllapse.ogg
OFFSET:-0.023
DEMOSTART:82.906
SCOREMODE:2
PREIMAGE:Re:Cøllapse.png
MAKER:Dashy & bol

COURSE:Edit
LEVEL:11.2
BALLOON:59
#START
#MEASURE 4/4
#SCROLL 0.25
#BARLINEOFF
1,
,
2,
1,
1,
01,
21,
10001000200020
#SCROLL 1.5
#BARLINEON
11,
#GOGOSTART
101010100202020200101010100202020200101010100100,
#GOGOEND
#SCROLL 1
4444,
444
#SCROLL 5.888
4,
#SCROLL 1
1120102011201020,
112010202020
#SCROLL 5.888
4000,
#SCROLL 1
1110111110101111,
101010111010
#SCROLL 5.888
4000,
#SCROLL 1
12001200120010001200100012001000,
100200000000100000000000100200000000100000000000100200000000100000000000
#SCROLL 5.888
400000000000
#SCROLL 1
100010001000,
2000001111111011,
100000100100000100100000100100100100100000101010,
2000001111111011,
100000100100000100101010200000002000000020000000,
200000000000101010200200200100100100100000100100,
100000100100000100100000100100100100100000101010,
11101010,
100000100000100000100111,
1010102110112021,
100000100100200000200100100000100100200000101010,
1011202110112010,
1111101010101011,
2010202110112021,
1011202110112021,
1011202110112021,
100000100100200000100000100000100000100100101010,
#GOGOSTART
20110200,
10002121,
2001,
0000100010002011,
2000201000000011,
20210101,
10000002,
0000000000011010,
2011102010201111,
200100100111100200200200,
200000100100200000200000100000101010100000101010,
100000100100200000100000200000100000200000101010,
2010202011101022,
200000100000200000200000100000200100100000101010,
#SCROLL 1.25
4
#SCROLL 1
1
#SCROLL 1.25
4
#SCROLL 1
1
#SCROLL 1.25
4
#SCROLL 1
1
#SCROLL 1.25
44,
4
#SCROLL 1
1
#SCROLL 1.25
444
#SCROLL 1
1
#SCROLL 1.25
4
#SCROLL 1
1,
1110112012202220,
2210211011101010,
#GOGOEND
100111200100111200100111,
200100111200222222
#SCROLL 5.888
400
#SCROLL 1
100,
100111200100111200100111,
200100111200222222
#SCROLL 5.888
400
#SCROLL 1
100,
#GOGOSTART
2010100020101011,
2010100020111010,
21102111,
2010221120102011,
#GOGOEND
200111200200112200100111,
200200112200222222
#SCROLL 5.888
400
#SCROLL 1
100,
200111200200112200100111,
200200112200222222
#SCROLL 5.888
400
#SCROLL 1
100,
#GOGOSTART
21212121,
2010201020102011,
21212121,
2010201120112110,
#GOGOEND
7,
,
0008,
#SCROLL 2
4444,
#SCROLL 1.5
2211201122101111,
#SCROLL 1
4004004004004000,
#SCROLL 0.5
4,
#MEASURE 1/16
#SCROLL 10
4,
#SCROLL 8
,
#SCROLL 6.3
,
#SCROLL 4.9
,
#SCROLL 3.7
#MEASURE 1/8000
,
#MEASURE 499/8000
#SCROLL 2
#BARLINEOFF
1,
#BARLINEON
#MEASURE 1/16
#SCROLL 2.8
,
#SCROLL 2.1
,
#SCROLL 1.7
,
#SCROLL 1.5
2,
#SCROLL 1.4
,
#SCROLL 1.3
,
#SCROLL 1.2
,
#SCROLL 1.1
2,
#SCROLL 1.05
,
#SCROLL 1.025
,
#SCROLL 1
,
#MEASURE 4/4
#GOGOSTART
2012021021121011,
2012021021121011,
2012012012212110,
100000100100200000100000200000100100200000101010,
2012021021121011,
2012021021121011,
200000101010200000101020200000200000101010100100,
200000100100200000100000200000100100200000101010,
2012021021121011,
2012021021121011,
200000101010200000101020200000200000101010100100,
200000100100200000100000200000100100200000101010,
2012021021121011,
200000100200000200100000200100100200100000101010,
#SCROLL 1.25
4
#SCROLL 1
1
#SCROLL 1.25
4
#SCROLL 1
1
#SCROLL 1.25
4
#SCROLL 1
1
#SCROLL 1.25
44,
40
#SCROLL 1
10
#SCROLL 1.25
444440
#SCROLL 1
10
#SCROLL 1.25
40
#SCROLL 1
10,
#GOGOEND
#SCROLL 0.75
200000200200000200200000200200202020200000200200,
#SCROLL 1
#GOGOSTART
2012021021121011,
2012012010212120,
100000100100200000100000200000100100200000101010,
2012021021121011,
2012021021121011,
200000101010200000101020200000200000101010100100,
200000100100200000100000200000100100200000101010,
2012221021122011,
2012221021122011,
200000101010200000101020200000200000101010100100,
200000100100200000100000200000100100200000101010,
2012221021122011,
200000100200200200100000200100100200200000101010,
#SCROLL 1.25
4
#SCROLL 1
1
#SCROLL 1.25
4
#SCROLL 1
1
#SCROLL 1.25
4
#SCROLL 1
1
#SCROLL 1.25
44,
400000
#SCROLL 1
100000
#SCROLL 1.25
400400400400400000
#SCROLL 1
100000
#SCROLL 1.25
400000
#SCROLL 1
101010,
#GOGOEND
2000001111111011,
100000100100000100100000100100100100100000101010,
2000001111111011,
100000100100000100101010200000002000000020000000,
200000000000101010200200200100100100100000100100,
100000100100000100100000100100100100100000101010,
11101010,
100000100000100000
#SCROLL 5.888
400
#SCROLL 1
111,
#GOGOSTART
2000
#SCROLL 1.85
40
#SCROLL 1
111111
#SCROLL 1.85
40
#SCROLL 1
11,
100000100100
#SCROLL 1.85
400
#SCROLL 1
100100000100100100100
#SCROLL 1.85
400000
#SCROLL 1
101010,
2000
#SCROLL 1.85
40
#SCROLL 1
111111
#SCROLL 1.85
40
#SCROLL 1
11,
100000100100
#SCROLL 1.85
400
#SCROLL 1
100101010200000002000
#SCROLL 1.85
4000
#SCROLL 1
20000000,
200000000000
#SCROLL 1.85
40
#SCROLL 1
1010200200200100100100
#SCROLL 1.85
400000
#SCROLL 1
100100,
100000100100
#SCROLL 1.85
400
#SCROLL 1
100100000100100100100
#SCROLL 1.85
400000
#SCROLL 1
101010,
100000100100
#SCROLL 1.85
400000
#SCROLL 1
100000100100101010100100101010,
100010001000100000100000100010001000100000100000100000100000100000100000100100100100100010001000,
#GOGOEND
2,
,
#END

COURSE:Oni
LEVEL:10.6
BALLOON:3,889
SCOREINIT:630
SCOREDIFF:0
#START
#MEASURE 8/4
#SCROLL 0.5
1 ,
2
2,
10
02,
1010
1122,
#MEASURE 4/4
#SCROLL 2
#GOGOSTART
3003003003007080,
#GOGOEND
#SCROLL 1
10101011,
100010001011
#SCROLL 1.5
4000,
#SCROLL 1
1020102010201022,
102210221010
#SCROLL 1.5
4000,
#SCROLL 1
1020111110201111,
101010221010
#SCROLL 1.5
4000,
#SCROLL 1
33303030,
333
#SCROLL 1.5
4,
#SCROLL 1
6080001111111011,
1011011011104000,
6080001111111011,
1011011030040030,
6080001111111011,
1011011011103000,
1020102010201011,
1022102210104000,
33321212,
1020102010201011,
12121211,
1111102210101110,
1010401010104011,
1010401110104010,
1010221020112211,
1022102210104000,
#GOGOSTART
1022102010201000,
1022102210111010,
12121030,
1022102210101011,
1020102210201022,
1020102011201020,
12121014,
1020102211011011,
1022102010201000,
1022102210111010,
12121010,
1022102210101011,
1020102210201022,
1020102011221220,
30303033,
3000303030103011,
1022102010201020,
1122122212221120,
#GOGOEND
#SCROLL 1.333
3002203002203022,
2030222030203020,
3002203020203022,
20302020301040
#SCROLL 1
22,
#GOGOSTART
1022102010201022,
1020102212221020,
1020102010221020,
1111222211221210,
#GOGOEND
#SCROLL 1.333
3022203022203022,
2030222030203020,
3022223022223022,
22302222301040
#SCROLL 1
22,
#GOGOSTART
1022102210221022,
1122112212221020,
1122112211221122,
1111222211221210,
#GOGOEND
30101012,
1000100010201011,
1020102010221020,
1022102012221020,
1111101111101110,
3003003003003000,
#SCROLL 0.5
3,
#SCROLL 1.888
4,
#GOGOSTART
#SCROLL 1.1
1002102012221022,
1002102012201020,
1022102210201120,
1020112012021222,
1002102012221022,
1002102012221020,
300000101010100000101010100000100000200200200000,
3010211012021220,
1021201011012022,
1021202212012022,
100000101010100000101010100000100000100100100000,
4000201110112022,
1022102012221022,
1022102012221020,
1022102210201010,
1020111110104000,
#GOGOEND
#SCROLL 0.8
1001001001002220,
#GOGOSTART
#SCROLL 1.33
1101201101102011,
1011202210112010,
1011210212022012,
1101201101102011,
1101202212112010,
300000101010100000101010100000100000100100100100,
1011202212202010,
1101201101102011,
1011210212112010,
300000101010100000101010100000100000200200100000,
3011201121012022,
1101201101102011,
1011210212112010,
1022102210221210,
1022111110114000,
#GOGOEND
#SCROLL 1
6080001111111011,
1011011011104000,
6080001111111011,
1011011030040030,
6080001111111011,
1011011011103000,
1020102010201011,
1022102210104000,
#GOGOSTART
#SCROLL 1.333
6080201111112011,
1011211011104000,
6080201111112011,
1011211030042030,
6080201111112011,
1021201111203000,
#SCROLL 1.667
101010100100100000100000101010100100100000100100,
#SCROLL 2
111111111111111111111111,
#GOGOEND
#BARLINEOFF
#SCROLL 0.1
#BPMCHANGE 88.888
78,
#END

COURSE:Hard
LEVEL:8
BALLOON:8
SCOREINIT:840
SCOREDIFF:0
#START
2,
,
2,
2,
2,
02,
22,
2222,
#GOGOSTART
3003003003003000,
#GOGOEND
10101011,
10101140,
12121212,
12121140,
1020111010201110,
11121140,
33303030,
3334,
1000001110111010,
1001001011102000,
1000001110111010,
1001001040040040,
1000001110111010,
1001001011102000,
11121212,
12121140,
11101010,
1000100010001011,
10101011,
1111100010101011,
11401140,
11401140,
11211121,
1011101110102000,
#GOGOSTART
10210212,
1000201011102020,
10210121,
0010201010102220,
1110201000102011,
10210121,
11210121,
0010201011011010,
10210212,
1000201110202020,
10210121,
1000222022202220,
1000201000102011,
1000201000111020,
30303033,
30333030,
11121212,
1110222022202220,
#GOGOEND
30230230,
2030002011104000,
30230230,
2030002011104000,
#GOGOSTART
12121212,
12121222,
12121212,
1110201110102000,
#GOGOEND
30230230,
2030002011104000,
30230230,
2030002011104000,
#GOGOSTART
12121212,
1020102010222020,
12121212,
1110222010201000,
#GOGOEND
31101010,
1000100010001011,
12121212,
12121220,
1110101110101110,
3003003003003000,
3,
4122,
#GOGOSTART
1110201110201000,
1022201022201000,
1110201110201000,
2220102220102000,
1110201110201000,
1022201022201000,
30303300,
3000222022202220,
1110201110201000,
1022201022201000,
30303300,
3000222022202220,
1110201110201000,
2220102220102000,
10101011,
1000111110001000,
#GOGOEND
7008,
#GOGOSTART
1101201101201010,
2220222011102010,
0010201111102000,
1101201101201010,
2202102202102020,
3020302030302220,
3000222022202220,
1101201101201010,
2202102202102020,
3020302030302220,
3000222022202220,
1101201101201010,
2202102202102020,
12121211,
1020111110201000,
#GOGOEND
1000001110111010,
1011011011102000,
1000001110111010,
1011011040040040,
1000001110111010,
1011011011102000,
12121211,
12121140,
#GOGOSTART
1000001110111010,
1011011011102000,
1000001110111010,
1011011040040040,
1000001110111010,
1011011011102000,
1111100022222000,
1110111022222220,
#GOGOEND
#BARLINEOFF
#SCROLL 2.41877418774
#BPMCHANGE 88.888
3,
#END

COURSE:Normal
LEVEL:8
BALLOON:8
SCOREINIT:1350
SCOREDIFF:0
#START
2,
,
2,
2,
2,
02,
22,
2222,
#GOGOSTART
3003003003003000,
#GOGOEND
1111,
1114,
1111,
10101140,
1000111010001110,
11101040,
33303030,
3334,
10011110,
1001001010002000,
10011110,
1001001040040040,
10011110,
1001001010002000,
11101010,
10101058,
11101010,
1000100010001011,
10101011,
1110100010101011,
1414,
1414,
11201120,
58585820,
#GOGOSTART
20110200,
10002222,
2001,
00101021,
2000201000000011,
10210101,
00000002,
0000000010011010,
20110200,
10000222,
20210000,
0222,
1000201000000011,
10210201,
30303033,
30333030,
11101010,
1222,
#GOGOEND
10210210,
21021140,
10210210,
21021140,
#GOGOSTART
1000000000000011,
10000222,
11,
1222,
#GOGOEND
10210210,
21021140,
10210210,
21021140,
#GOGOSTART
12101210,
12101212,
12101210,
1020100011102000,
#GOGOEND
31101010,
1111,
12101210,
12121220,
1110001110001110,
3003003003003000,
3,
4,
#GOGOSTART
1100001100001000,
2200002200002000,
1100001000002000,
10202021,
1100001100001000,
2200002200002000,
30303300,
30202021,
1100001100001000,
2200002200002000,
30303300,
3222,
1100001100001000,
2200002200002000,
10101011,
1000111010001000,
#GOGOEND
7008,
#GOGOSTART
2001002001002000,
1110100010202010,
0000222020002000,
1002001002001000,
2001002001002000,
30303300,
3000200020002011,
1002001002001000,
2001002001002000,
30303300,
3222,
1002001002001000,
2001002001002000,
10101011,
1000111010001000,
#GOGOEND
10011110,
1001001010002000,
10011110,
1001001040040040,
10011110,
1001001010002000,
11101010,
1114,
#GOGOSTART
10011110,
1001001010002000,
10011110,
1001001040040040,
10011110,
1001001010002000,
5858,
68686840,
#GOGOEND
#BARLINEOFF
#SCROLL 2.41877418774
#BPMCHANGE 88.888
3,
#END

COURSE:Easy
LEVEL:5
BALLOON:8,12,9,12,12,9,12,12,9,12,2
SCOREINIT:1800
SCOREDIFF:0
#START
2,
,
2,
2,
2,
02,
22,
2222,
#GOGOSTART
7008,
#GOGOEND
1111,
1114,
1111,
1114,
1111,
1114,
11101010,
10101058,
10070000,
0082,
10070000,
0008000020020020,
10070000,
0082,
1111,
1110,
11101010,
10101011,
10101011,
10101110,
1404,
0404,
1404,
1112,
#GOGOSTART
3111,
1111,
1111,
1111,
1111,
1111,
1111,
1111,
3111,
1111,
1111,
1111,
1111,
1111,
2222,
2222,
1111,
5008,
#GOGOEND
10010010,
01001020,
10010010,
01001020,
#GOGOSTART
1111,
1111,
1111,
1111,
#GOGOEND
10010010,
01001020,
10010010,
01001020,
#GOGOSTART
1111,
1111,
1111,
5008,
#GOGOEND
31,
11,
1111,
1111,
30030030,
1001001001001000,
3,
0222,
#GOGOSTART
1111,
1111,
1111,
10101011,
1111,
1111,
30303300,
30101011,
1212,
1212,
30303300,
3222,
1212,
1212,
10101011,
10111010,
#GOGOEND
3004,
#GOGOSTART
1212,
1212,
10201021,
1212,
1212,
30303300,
30202021,
1212,
1212,
30303300,
3222,
1212,
1212,
10101011,
10111010,
#GOGOEND
10070000,
0082,
10070000,
0008000020020020,
10070000,
0082,
1111,
1114,
#GOGOSTART
10070000,
0082,
10070000,
0008000020020020,
10070000,
0082,
5858,
68686878,
#GOGOEND
#BARLINEOFF
#SCROLL 2.41877418774
#BPMCHANGE 88.888
3,
#END
