TITLE:Fearless
SUBTITLE:--Ash Electric
WAVE:Fearless.ogg
BPM:128
OFFSET:0
DEMOSTART:46.875

COURSE:Oni
LEVEL:7
BALLOON:
#START
#MEASURE 4/4
0,
2120101020020010,
2001021020010210,
2120101020020010,
2001021020010210,
2120101020020010,
2001021020010210,
2120101020020010,
2001021020010210,
1120101020001010,
1210101012102020,
1120101020001010,
1210101022202010,
1120101020001010,
1210101012102020,
1120101020001010,
1210101022202011,
1000100010001011,
2000100010001011,
2000200020002022,
2000200020002022,
1011101110111011,
2011101110111011,
2011201220222022,
2022202221202020,
#GOGOSTART
1110101020001020,
1210102012102010,
1110101020001020,
1210102012202010,
1110101020001020,
1210102012102010,
1110101020001020,
1210102012201020,
1012101011102020,
1210101012102020,
1012101011102020,
1210101012202020,
1012101011102020,
1210101012102020,
1012101011102020,
1210101012202020,
#GOGOEND
2120101120020011,
2001021020010210,
2120101120020011,
2001021020010210,
2120101120020011,
2001021020010210,
2120101120020011,
2001021020010210,
#GOGOSTART
2120101120222011,
2011221020112210,
2120101120222011,
2011221020112210,
2120101120222011,
2011221020112210,
2120101120222011,
2011221020112210,
#GOGOEND
20020020,
20020020,
20020020,
20020020,
20020020,
20020020,
20020020,
20020020,
#END

COURSE:Hard
LEVEL:5
BALLOON:
#START
#MEASURE 4/4
0,
2020101020020010,
2001001020010010,
2020101020020010,
2001001020010010,
2020101020020010,
2001001020010010,
2020101020020010,
2001001020010010,
12112011,
21012120,
12112011,
21012121,
12112011,
21012120,
12112011,
21012121,
10101011,
20101011,
20202022,
20202022,
10111011,
20111011,
20212022,
20222212,
#GOGOSTART
11212011,
21022121,
11212011,
21011221,
11212011,
21022121,
11212011,
21011212,
11212021,
21122122,
11212021,
21111222,
11212021,
21122122,
11212021,
21111222,
#GOGOEND
2020101020020010,
2001001020010010,
2020101020020010,
2001001020010010,
2020101020020010,
2001001020010010,
2020101020020010,
2001001020010010,
#GOGOSTART
2011101020020010,
2001011020010110,
2011101020020010,
2001011020010110,
2011101020020010,
2001011020010110,
2011101020020010,
2001011020010110,
#GOGOEND
20020020,
20020020,
20020020,
20020020,
20020020,
20020020,
20020020,
20020020,
#END

COURSE:Normal
LEVEL:3
BALLOON:
#START
#MEASURE 4/4
0,
2120,
22,
2120,
22,
2120,
22,
2120,
22,
1120,
2121,
1120,
2121,
1120,
2121,
1120,
2121,
1011,
2011,
2022,
2022,
1011,
2011,
2022,
2021,
#GOGOSTART
1120,
2012,
1120,
2012,
1120,
2012,
1120,
2012,
1122,
2112,
1122,
2112,
1122,
2112,
1122,
2112,
#GOGOEND
2120,
22,
2120,
22,
2120,
22,
2120,
22,
#GOGOSTART
20112001,
20012001,
20112001,
20012001,
20112001,
20012001,
20112001,
20012001,
#GOGOEND
20020020,
20020020,
20020020,
20020020,
20020020,
20020020,
20020020,
20020020,
#END

COURSE:Easy
LEVEL:2
BALLOON:50
#START
#MEASURE 4/4
0,
2,
22,
2,
22,
2,
22,
2,
22,
12,
02,
12,
02,
12,
02,
12,
02,
7,
0,
0,
0,
0,
0,
0,
08,
#GOGOSTART
1,
22,
1,
22,
1,
22,
1,
22,
1002,
22,
1002,
22,
1002,
22,
1002,
22,
#GOGOEND
2,
22,
2,
22,
2,
22,
2,
22,
#GOGOSTART
21,
2022,
21,
2022,
21,
2022,
21,
2022,
#GOGOEND
2,
2,
2,
2,
2,
2,
2,
20020020,
#END
