TITLE:Forever Fading Away
SUBTITLE:--DashyDesu
BPM:200
WAVE:Forever Fading Away.ogg
OFFSET:-0.029
DEMOSTART:95.529
PREIMAGE:Forever Fading Away.png
BGMOVIE:Forever Fading Away.mp4
MAKER:DashyDesu & Colin

COURSE:Edit
LEVEL:10
BALLOON:
SCOREINIT:
SCOREDIFF:
NOTESDESIGNER4:DashyDesu & Colin
#START
1022102010202022,
1020101210102122,
1022102010202022,
1020101210102122,
1022102010202022,
1020101210102122,
1022102010202022,
1020101210102122,
1012121122102212,
1012121120121212,
1012101120102120,
1212121120112012,
1012101122102212,
1022121120121022,
1012101120102010,
1112111121121112,
1012121120112212,
1212121120121022,
1012101122102212,
1012121020121012,
1022121120102012,
1122121120121122,
1012101122112212,
1012121020112012,
1021201120112012,
1211221120112122,
1012121120112212,
1012121120112212,
1012121120112012,
1011221120121122,
1012101120102012,
1122121020112012,
1012101020102010,
1012101020102000,
1012101020002000,
1012101020102010,
1012101020002000,
1012101020102000,
1012101020002000,
1012101020102222,
1021201020002122,
1012101020102222,
1012101020002222,
1012101020102022,
1012101020002222,
1012101020102222,
1012101020002222,
1012101020102022,
1012101020002222,
1012101020102222,
1012101020002222,
1012101020102222,
1012101020002222,
1012101020102222,
1012101020002222,
1012101020102012,
1012101020002222,
1012101020102222,
1012101020002222,
1012101020102022,
1011201210002222,
1012101020102222,
1012101020002222,
1012101020112212,
#MEASURE 64/4
#BARLINEOFF
#SCROLL 0.125
200000002000000020000000200000002000000020000000200000002000000020000000000000002000000020000000200000000000000020000000200000002000000020000000200000002000000020000000200000002000000020000000200000000000000020000000200000002000000000000000000000000
#SCROLL 1
0101010,
#MEASURE 4/4
#GOGOSTART
#BARLINEON
#SCROLL 1
1020102210201120,
12121212,
1020112211201122,
1112112211201020,
1020102210201212,
12121212,
1020102011221122,
1020102010201022,
1020112010201120,
1020112010201120,
1020112010201120,
1020112010201120,
1020112010201120,
1020112211221022,
1020112010201020,
102010101010111
#GOGOEND
1,
#GOGOSTART
1020102010201120,
1020102211221020,
1122121210201122,
1122121010201010,
1020112010201022,
1020112210201022,
1020112010201122,
1020102010211020,
1020112211201020,
1122102010201020,
1020112010201020,
1020102211201020,
12121212,
1020102212121020,
1020112010201020,
112011201120111
#GOGOEND
1,
#GOGOSTART
#SCROLL 1.1
1111222211112222,
2222111122221110,
#SCROLL 1.2
1111222211112212,
2211221122112110,
#SCROLL 1.3
1111211122112210,
#SCROLL 1.4
1111211222112110,
#SCROLL 1.5
1111221122112110,
#SCROLL 1.6
1121221211212212,
#SCROLL 1.7
1111222211112211,
2222111122221110,
#SCROLL 1.8
1111222211112212,
2211221122112110,
#SCROLL 1.9
1122112211112211,
2211221122112110,
#SCROLL 2
1121121211211212,
1221121212211211,
#SCROLL 2.1
1111222211112222,
2222111122221110,
#SCROLL 2.2
1111222211112212,
2211221122112110,
#SCROLL 2.3
1111211122112210,
#SCROLL 2.4
1111211222112110,
#SCROLL 2.5
1111221122112110,
#SCROLL 2.6
1121221211212212,
#SCROLL 2.7
1111222211112211,
2222111122221110,
#SCROLL 2.8
1111222211112212,
2211221122112110,
#SCROLL 2.9
1122112211112211,
2211221122112110,
#SCROLL 3
1021212121112212,
#SCROLL 4
1111111111111111,
#GOGOEND
#SCROLL 1
1012121120102211,
1011212120112120,
1011201120102210,
1012121020112212,
1011201120102210,
1011201120112012,
1011201120102122,
1012101020112012,
#END

COURSE:Oni
LEVEL:9
BALLOON:58
SCOREINIT:
SCOREDIFF:
#START
2222200200202000,
2020200500000000,
00008220,
22205080,
2222200200202000,
2020200500000000,
00008220,
2222200050008000,
1011101120000000,
1011101020221000,
1011101120000000,
1011101010221022,
1011101120001000,
1011101010221000,
11111111,
1111111111111111,
1011101120001000,
1011101010221000,
1011101120001000,
1011101010221022,
1011101120001000,
1011101010221000,
1011101120001000,
1011101010221022,
1011101120102000,
1011101010221000,
1011101120102000,
1011101010221022,
1011101120102000,
1011101010221000,
1011101120102000,
1011111010221022,
1021001040000010,
1000101010211000,
1021001040000010,
1021021010201000,
1021001040000010,
1000101010211000,
1021001040000010,
1021021010202222,
1021001040000010,
1000101010211000,
1021001040000010,
1021021010201020,
1021001040000010,
1000101010211000,
1021001040000010,
1021021010201020,
10121212,
1000101010201110,
10121212,
1022101011201120,
10121212,
1000101010201110,
10121212,
1022101011201120,
1000112210001000,
10111210,
1000122210001000,
10111212,
1000112210001000,
10111210,
1000122210001000,
10111212,
#SCROLL 0.5
11,
21,
12,
21,
1,
12,
1,
2,
12,
12,
11,
22,
1,
12,
25,
00080
#SCROLL 1
222,
#GOGOSTART
3020102210221020,
1020102010222020,
1020102010221020,
1022102011102000,
1011102010221020,
1011102010201000,
30440303,
0011102011102000,
1011201011102000,
1011201011202000,
11221122,
1110222011102220,
6008,
33,
4141,
3000101010101111,
1020102210221020,
1020102010222020,
1020102010221020,
1022102011102000,
1011102010221020,
1011102010201000,
30440303,
0011102010022020,
1011201011102000,
1011202010222000,
11221122,
1110222011102220,
6008,
1111200011222000,
2222100022111000,
1111101022222220,
1011101010111010,
2022202020222000,
1011101010111010,
2022202020222000,
1011101020222000,
1011101020222000,
1011101020222000,
1111222011112000,
1111101011111010,
2222202022222000,
1111101011111010,
2222202022222000,
7,
,
,
0008,
1111111011111110,
2222222022222220,
1111111011111110,
2222222022222220,
1111111022222220,
1111111022222220,
1111111022222220,
1111222011112220,
1111111011111110,
2222222022222220,
1111111011111110,
2222222022222220,
1111111011111010,
2222222022222020,
#SCROLL 0.5
#BPMCHANGE 400
1111,
1111,
#SCROLL 0.4
#BPMCHANGE 800
1111,
1111,
1111,
1111,
#GOGOEND
#BPMCHANGE 200
#SCROLL 1
1011101040002000,
1011101040221000,
1011101040002000,
1011101040221022,
1011101040002000,
1011101040221000,
1011101040002000,
10111010302210
#SCROLL 2
44,
#END

COURSE:Hard
LEVEL:7
BALLOON:20,20,8,8,8,4,4,18,1,1,20,7,28,28
SCOREINIT:
SCOREDIFF:
#START
#BPMCHANGE 200
22200220,
0020200600000000,
0082,
02206080,
22200220,
0020200600000000,
0082,
22206080,
11104011,
11104000,
11104011,
11104040,
10121010,
10121110,
11111111,
50000008,
11104010,
11104011,
11104011,
11104040,
10112110,
10112010,
10111110,
1011101010111000,
10104011,
11104010,
11104011,
11104040,
10112110,
10112210,
10111110,
1010101011111000,
10014000,
10112110,
10014001,
1001001010001000,
10014001,
10112010,
10014001,
1001001010001111,
10014001,
10112110,
10014001,
1001001010201000,
10014001,
10112010,
10014001,
1001001010201020,
10121010,
10121010,
10121210,
11121110,
10121012,
10121110,
10121210,
1010102011101110,
10121012,
10121110,
10121010,
1010102011101010,
10121012,
10121110,
10121010,
1000102010111011,
11,
21,
12,
21,
1,
12,
1,
11,
12,
12,
11,
22,
1,
12,
25,
00080222,
#GOGOSTART
32121212,
1020102010222000,
12121212,
1020102010111000,
11121210,
11121210,
30440303,
0010102011111000,
11111110,
22222220,
11221122,
1110200011102000,
6008,
3132,
4141,
3000101010101111,
10121212,
1020102010222000,
12121212,
1020102011111000,
11121210,
11121210,
30330404,
0011101011111000,
1010101011101000,
2020202022202000,
11221120,
1110222011102220,
6008,
11101110,
22222220,
11112222,
7,
0008,
7,
0008,
7008,
7008,
7008,
70087008,
7,
0000800070087008,
7,
0000008070000008,
7,
00000008,
7,
00000008,
11111111,
2020202020222000,
11111111,
2020202020222000,
1010101020222000,
1010101020222000,
1010101020222000,
1010222010102000,
1010101010101110,
22222220,
1010101010101110,
2020202020222000,
11111111,
2020202022222000,
#SCROLL 0.5
#BPMCHANGE 400
1111,
1111,
#SCROLL 0.3
#BPMCHANGE 800
1111,
1111,
1111,
1111,
#SCROLL 1
#GOGOEND
#BPMCHANGE 200
11104011,
11104011,
11104011,
11104040,
11104011,
11104011,
11104011,
11104044,
#END

COURSE:Normal
LEVEL:6
BALLOON:10,8,8,58,58,115,18
SCOREINIT:
SCOREDIFF:
NOTESDESIGNER1:DashyDesu & Colin
#START
22200220,
0020200600000000,
0080,
20206008,
22200220,
0020200600000000,
0080,
20206008,
11102000,
10012000,
11102001,
10112020,
10104011,
1141,
11101110,
50000008,
11102000,
10012000,
11102001,
10112020,
10102011,
1121,
10101110,
3040,
11102000,
10012000,
11102001,
10112020,
10102011,
1121,
10101110,
7008,
1020,
1120,
10102011,
1120,
1021,
11102000,
30030040,
30001111,
1020,
1120,
10102011,
1120,
1021,
11102000,
30003004,
30001111,
1111,
10101011,
10101011,
1144,
1111,
10111011,
1212,
1144,
1111,
10101011,
10101011,
1144,
1111,
10111011,
1212,
1144,
#MEASURE 64/4
#SCROLL 0.5
10001000200020001000100020002000100000002000200010000000100000001000200010000000100020001000100010000000300040004000600000000800,
#MEASURE 4/4
#GOGOSTART
#SCROLL 1
30120210,
1122,
11110010,
10120020,
10111022,
0344,
30110220,
3030,
10110220,
1120,
10110220,
1122,
7008,
3030,
4040,
40111111,
30120210,
1122,
11110010,
10120020,
10111022,
0344,
30110220,
3030,
10110220,
1120,
10110220,
1122,
7008,
3030,
4040,
4030,
7,
,
,
0000000000000008,
7,
,
,
0000000000000008,
7,
,
,
,
,
,
,
0008,
11111010,
11111010,
22222020,
22222000,
11111010,
11111010,
22222020,
22222000,
11111110,
11111000,
22222220,
22222000,
11111110,
11111110,
#BPMCHANGE 400
#SCROLL 0.5
1111,
1111,
#BPMCHANGE 800
7,
,
,
00000008,
#MEASURE 8/4
#GOGOEND
#BPMCHANGE 200
1110200010012000,
1110200110112020,
1110200010012000,
10101000200000101000101020002022,
#END

COURSE:Easy
LEVEL:2
BALLOON:
SCOREINIT:
SCOREDIFF:
NOTESDESIGNER0:DashyDesu & Colin
#START
#BARLINEOFF
0,
,
,
,
,
,
,
,
#BARLINEON
1,
1010,
2,
1010,
2,
1010,
2,
1010,
2,
2,
2020,
2020,
2,
2,
2,
2,
2,
2,
1,
1,
1,
1,
1,
1,
5,
,
,
,
,
,
,
8,
5,
,
,
8,
5,
,
,
,
8,
1,
1010,
1,
1,
1,
1010,
1,
1,
1,
1010,
1,
1,
1,
1010,
1,
#MEASURE 64/4
2000000020000000200000002000000020000000200000002000002000000000,
#MEASURE 4/4
#GOGOSTART
1010,
1050,
,
8050,
0008,
,
1,
1,
1010,
1,
1010,
1010,
5008,
0020,
2020,
200000000000000
#GOGOEND
0,
#GOGOSTART
1010,
1,
5,
8,
5,
8010,
1,
2020,
1010,
1010,
1,
1,
5,
8,
1,
200000002000000
#GOGOEND
0,
#GOGOSTART
5,
0008,
5,
0008,
5,
,
,
0008,
5,
0008,
5,
0008,
5,
0008,
5,
0008,
5,
0008,
5,
0008,
5,
0008,
5,
0008,
5,
0008,
5,
0008,
5,
0008,
5,
,
#GOGOEND
8,
1010,
1,
1010,
#BPMCHANGE 200
1010,
1010,
1010,
1001,
2,
#END
