TITLE:650 HP
SUBTITLE:--Akako Hinami
BPM:160
WAVE:650 HP.ogg
OFFSET:-1.505
DEMOSTART:25.505
SCOREMODE:2
MAKER:bol

COURSE:Oni
LEVEL:8
BALLOON:
SCOREINIT:1110
SCOREDIFF:0
#START
3,
22,
1,
22,
1,
22,
1,
3000300030002222,
1022102011201020,
1022102011201010,
1022102011201020,
1022102011203000,
1022102011201020,
1022102011201010,
31111111,
1101010022020200,
#GOGOSTART
1011001022102010,
1022001021102120,
1011001022102010,
#GOGOEND
1
#GOGOSTART
4
#GOGOEND
1
#GOGOSTART
4
#GOGOEND
1
#GOGOSTART
4
#GOGOEND
1
#GOGOSTART
4,
1011001022102010,
1022001021102120,
1011001022102010,
1121102012102222,
1021001022102010,
1021001021101222,
1021001022102010,
#GOGOEND
1121101022122020,
#GOGOSTART
1021001022102010,
1021001021102122,
1021001022102010,
1021102111201021,
#GOGOEND
#BPMCHANGE 320
#MEASURE 8/4
#SCROLL 0.5
1010220101201020,
1010220101221020,
1010220101201020,
10
#GOGOSTART
21
#GOGOEND
10
#GOGOSTART
21
#GOGOEND
10
#GOGOSTART
21
#GOGOEND
10
#GOGOSTART
21,
#GOGOEND
1010220101201020,
1010220101221020,
1010220101201020,
1110110210221020,
#SCROLL 0.6
1010220101201020,
1010220101221210,
1010220101201020,
10
#GOGOSTART
21
#GOGOEND
10
#GOGOSTART
21
#GOGOEND
10
#GOGOSTART
21
#GOGOEND
10
#GOGOSTART
21,
#GOGOEND
1010220101201020,
1010220101221210,
1010220101201020,
1110210210221020,
#BPMCHANGE 160
#MEASURE 4/4
#SCROLL 1
3,
,
,
,
12,
1,
12,
5000008011010010,
1021102012201120,
1022102011201121,
1021102012201120,
1122102011211000,
1021102012201120,
1022102011201121,
11111111,
1101012022020210,
#GOGOSTART
1011021022102010,
1012021022102210,
1012021022102010,
#GOGOEND
11
#GOGOSTART
21
#GOGOEND
10
#GOGOSTART
20
#GOGOEND
11
#GOGOSTART
21
#GOGOEND
10
#GOGOSTART
20,
1011021022102010,
1012021022102210,
1012021022102010,
1121102011021022,
1011021022102010,
1012021022101222,
1012021022102010,
#GOGOEND
1121101022122020,
#GOGOSTART
1011021022102010,
1012021022102212,
1012021022102010,
1022102211201121,
#GOGOEND
#BPMCHANGE 320
#MEASURE 8/4
#SCROLL 0.5
1010220101201120,
1010220101221020,
1010220101201120,
10
#GOGOSTART
21
#GOGOEND
10
#GOGOSTART
21
#GOGOEND
10
#GOGOSTART
21
#GOGOEND
10
#GOGOSTART
21,
#GOGOEND
1010220101201120,
1010220101221020,
1010220101201120,
1101100110221020,
#BPMCHANGE 160
#MEASURE 4/4
#SCROLL 1
3,
,
,
#END

COURSE:Hard
LEVEL:7
BALLOON:
SCOREINIT:1440
SCOREDIFF:0
#START
3,
,
,
,
,
,
,
3000300030002220,
12101210,
12121011,
12101210,
12121230,
12101210,
12121011,
31101110,
1101010022020200,
#GOGOSTART
1011001020102010,
1011001020102020,
1011001020102010,
#GOGOEND
1
#GOGOSTART
4
#GOGOEND
0
#GOGOSTART
4
#GOGOEND
0
#GOGOSTART
4
#GOGOEND
0
#GOGOSTART
4,
1011001020102010,
1011001020102020,
1011001020102010,
3000300030003011,
1011001020102010,
1011001020102020,
1011001020102010,
#GOGOEND
1101101022022020,
#GOGOSTART
1011001020102010,
1011001020102020,
1011001020102010,
3000300030003011,
#GOGOEND
#BPMCHANGE 320
#MEASURE 8/4
#SCROLL 0.5
1010220100201020,
1010220100222020,
1010220100201020,
1
#GOGOSTART
4
#GOGOEND
0
#GOGOSTART
4
#GOGOEND
0
#GOGOSTART
4
#GOGOEND
0
#GOGOSTART
4,
#GOGOEND
1010220100201020,
1010220100222020,
1010220100201020,
3000300030003011,
1010220100201020,
1010220100222020,
1010220100201020,
1
#GOGOSTART
4
#GOGOEND
0
#GOGOSTART
4
#GOGOEND
0
#GOGOSTART
4
#GOGOEND
0
#GOGOSTART
4,
#GOGOEND
1010220100201020,
1010220100222020,
1010220100201020,
30303031,
#BPMCHANGE 160
#MEASURE 4/4
#SCROLL 1
3,
,
,
,
12,
5008,
12,
5000008010010010,
12101210,
12121011,
12101210,
12121230,
12101210,
12121011,
11101110,
1101010022020200,
#GOGOSTART
1011001020102010,
1011001020102020,
1011001020102010,
#GOGOEND
1
#GOGOSTART
4
#GOGOEND
0
#GOGOSTART
4
#GOGOEND
0
#GOGOSTART
4
#GOGOEND
0
#GOGOSTART
4,
1011001020102010,
1011001020102020,
1011001020102010,
3000300030003011,
1011001020102010,
1011001020102020,
1011001020102010,
#GOGOEND
1101101022022020,
#GOGOSTART
1011001020102010,
1011001020102020,
1011001020102010,
3000300030003011,
#GOGOEND
#BPMCHANGE 320
#MEASURE 8/4
#SCROLL 0.5
1010220100201020,
1010220100222020,
1010220100201020,
1
#GOGOSTART
4
#GOGOEND
0
#GOGOSTART
4
#GOGOEND
0
#GOGOSTART
4
#GOGOEND
0
#GOGOSTART
4,
#GOGOEND
1010220100201020,
1010220100222020,
1010220100201020,
30303031,
#BPMCHANGE 160
#MEASURE 4/4
#SCROLL 1
3,
,
,
#END

COURSE:Normal
LEVEL:6
BALLOON:3
SCOREINIT:1840
SCOREDIFF:0
#START
3,
,
,
,
,
,
,
30303022,
10101110,
10111110,
10101110,
11110130,
10101110,
10111110,
30101110,
1001010020020200,
#GOGOSTART
1001001020102000,
1001001020202000,
1001001020102000,
#GOGOEND
0
#GOGOSTART
4
#GOGOEND
0
#GOGOSTART
4
#GOGOEND
0
#GOGOSTART
4
#GOGOEND
0
#GOGOSTART
4,
1001001020102000,
1001001020202000,
1001001020102000,
3333,
1001001020102000,
1001001020202000,
1001001020102000,
#GOGOEND
1001001020020020,
#GOGOSTART
1001001020102000,
1001001020202000,
1001001020102000,
3333,
#GOGOEND
#BPMCHANGE 320
#MEASURE 8/4
#SCROLL 0.5
1010100100101000,
2020200200202000,
1010100100101000,
0
#GOGOSTART
4
#GOGOEND
0
#GOGOSTART
4
#GOGOEND
0
#GOGOSTART
4
#GOGOEND
0
#GOGOSTART
4,
#GOGOEND
1010100100101000,
2020200200202000,
1010100100101000,
3333,
1010100100101000,
2020200200202020,
1010100100101000,
0
#GOGOSTART
4
#GOGOEND
0
#GOGOSTART
4
#GOGOEND
0
#GOGOSTART
4
#GOGOEND
0
#GOGOSTART
4,
#GOGOEND
1010100100101000,
2020200200202020,
1010100100101000,
3333,
#BPMCHANGE 160
#MEASURE 4/4
#SCROLL 1
3,
,
,
,
12,
5008,
12,
50087008,
10101110,
10111110,
10101110,
11110130,
10101110,
10111110,
30101110,
1001010020020200,
#GOGOSTART
1001001020102000,
1001001020202000,
1001001020102000,
#GOGOEND
0
#GOGOSTART
4
#GOGOEND
0
#GOGOSTART
4
#GOGOEND
0
#GOGOSTART
4
#GOGOEND
0
#GOGOSTART
4,
1001001020102000,
1001001020202000,
1001001020102000,
3333,
1001001020102000,
1001001020202000,
1001001020102000,
#GOGOEND
1001001020020020,
#GOGOSTART
1001001020102000,
1001001020202000,
1001001020102000,
3333,
#GOGOEND
#BPMCHANGE 320
#MEASURE 8/4
#SCROLL 0.5
1010100100101000,
2020200200202020,
1010100100101000,
0
#GOGOSTART
4
#GOGOEND
0
#GOGOSTART
4
#GOGOEND
0
#GOGOSTART
4
#GOGOEND
0
#GOGOSTART
4,
#GOGOEND
1010100100101000,
2020200200202020,
1010100100101000,
3333,
#BPMCHANGE 160
#MEASURE 4/4
#SCROLL 1
3,
,
,
#END

COURSE:Easy
LEVEL:3
BALLOON:
SCOREINIT:2910
SCOREDIFF:0
#START
3,
,
,
,
,
,
,
3333,
1110,
1110,
1110,
1113,
1110,
1110,
3110,
5858,
#GOGOSTART
1202,
1202,
1202,
#GOGOEND
0
#GOGOSTART
4
#GOGOEND
0
#GOGOSTART
4
#GOGOEND
0
#GOGOSTART
4
#GOGOEND
0
#GOGOSTART
4,
1202,
1202,
1202,
3333,
1202,
1202,
1202,
#GOGOEND
5858,
#GOGOSTART
1202,
1202,
1202,
3333,
#GOGOEND
#BPMCHANGE 320
#MEASURE 8/4
#SCROLL 0.5
1000100100001000,
2000200200002000,
1000100100001000,
0
#GOGOSTART
4
#GOGOEND
0
#GOGOSTART
4
#GOGOEND
0
#GOGOSTART
4
#GOGOEND
0
#GOGOSTART
4,
#GOGOEND
1000100100001000,
2000200200002000,
1000100100001000,
3333,
1000100100001000,
2000200200002000,
1000100100001000,
0
#GOGOSTART
4
#GOGOEND
0
#GOGOSTART
4
#GOGOEND
0
#GOGOSTART
4
#GOGOEND
0
#GOGOSTART
4,
#GOGOEND
1000100100001000,
2000200200002000,
1000100100001000,
3333,
#BPMCHANGE 160
#MEASURE 4/4
#SCROLL 1
3,
,
,
,
1,
5008,
1,
50085080,
1110,
1110,
1110,
1113,
1110,
1110,
3110,
5858,
#GOGOSTART
1202,
1202,
1202,
#GOGOEND
0
#GOGOSTART
4
#GOGOEND
0
#GOGOSTART
4
#GOGOEND
0
#GOGOSTART
4
#GOGOEND
0
#GOGOSTART
4,
1202,
1202,
1202,
3333,
1202,
1202,
1202,
#GOGOEND
5858,
#GOGOSTART
1202,
1202,
1202,
3333,
#GOGOEND
#BPMCHANGE 320
#MEASURE 8/4
#SCROLL 0.5
1000100100001000,
2000200200002000,
1000100100001000,
0
#GOGOSTART
4
#GOGOEND
0
#GOGOSTART
4
#GOGOEND
0
#GOGOSTART
4
#GOGOEND
0
#GOGOSTART
4,
#GOGOEND
1000100100001000,
2000200200002000,
1000100100001000,
3333,
#BPMCHANGE 160
#MEASURE 4/4
#SCROLL 1
3,
,
,
#END
