TITLE:Back Where I'm From
SUBTITLE:--NetroAki
WAVE:BackWhereImFrom.ogg
PREIMAGE:BWIF.jpg
BPM:190.00
OFFSET:-0.050
DEMOSTART:82.629
MAKER:Komi

COURSE:Oni
LEVEL:9
BALLOON:8
#START
#MEASURE 2/4
0002,
#MEASURE 4/4
01020122,
10000002,
02010222,
10000002,
01020122,
10000002,
02010222,
1070000000008011,
21202012,
10101212,
21202012,
10101212,
21202012,
10101212,
4011104010104010,
1021101040102110,
20101212,
00101122,
10102212,
00101121,
10101211,
00101122,
21122122,
22122122,
20101212,
00101122,
10102212,
00101121,
10101211,
00101122,
21122122,
2020102020112121,
10211121,
10211121,
10112211,
22112211,
2000100020112010,
2000100020112010,
1200100011102010,
1010201020102012,
10211121,
10211121,
10112211,
22112211,
2000100020112010,
2000100020112010,
1200102011102010,
2010201020102012,
2020202020202022,
2020202020202022,
2020202020202022,
22222222,
2020202020202022,
2020202020202022,
2020202020202022,
2020202020222222,
2010102020102011,
2020201020102011,
2010201020202011,
22211221,
2010102020102011,
2020201020102011,
2010201020202011,
2010102020112111,
2000000000000120,
#GOGOSTART
2000100010201120,
11201122,
1000100020201120,
11201121,
10101211,
11201122,
2011102020111020,
2021102020112020,
2000100010201120,
11201122,
1000100020201120,
11201121,
10101211,
11201122,
2011102020112020,
2021102020112211,
#GOGOEND
2000002220201020,
1000001110201010,
2000001110201010,
50008001,
2000002220201020,
1000001110201010,
2000001110201010,
50008111,
2000002220201020,
1000001110201010,
2000001110201010,
50008111,
2000002220201020,
1000001110201010,
2000001110201010,
50008222,
12,
22,
22,
2000000020000011,
22,
22,
22,
2000000020112040,
10201202,
10201204,
10201202,
1000200010200011,
20201202,
10201202,
10201202,
10201201,
2000102010112010,
2000102010112010,
2000101120102010,
2000101120102010,
10021021,
12004000,
10021011,
21104010,
2000102010112010,
2000102010112010,
2000101120102010,
2000101120102010,
10021021,
12004000,
10021011,
21114111,
0000000000000120,
#GOGOSTART
2000100010201120,
11201122,
1000100020201120,
11201121,
10101211,
11201122,
2011102020111020,
2021102020112020,
2000100010201120,
11201122,
1000100020201120,
11201121,
10101211,
11201122,
2011102020112020,
2021102020112211,
2000100010201120,
11201122,
1000100020201120,
11201121,
10101211,
11201122,
2011102020111020,
2021102020112020,
2000100010201120,
11201122,
1000100020201120,
11201121,
10101211,
11201122,
2011102020112020,
2021102020112211,
#GOGOEND
20102012,
00000001,
20102012,
00000001,
20202021,
0000000011101022,
20202022,
10021002,
#END

COURSE:Hard
LEVEL:7
BALLOON:6
#START
#MEASURE 2/4
0001,
#MEASURE 4/4
01020221,
10000002,
02010112,
20000001,
01020221,
10000002,
02010112,
27000080,
11202022,
10101210,
11202022,
10101210,
11202022,
10101122,
41141141,
12114121,
20101212,
00101122,
10102212,
00101121,
10101211,
00101122,
21122112,
21122112,
20101212,
00101122,
10102212,
00101121,
10101211,
00101122,
21122112,
21122112,
10201120,
10201120,
10102210,
20102210,
20102121,
20102121,
10101120,
10202121,
10201120,
10201120,
10102210,
20102210,
20102121,
20102121,
10101120,
10202121,
22202222,
22202222,
22202222,
22202222,
22202222,
22202222,
22202222,
2020200020202022,
20102121,
22202121,
21202221,
22201221,
21102121,
22202121,
21202221,
2010100020201011,
10000002,
#GOGOSTART
20101212,
11201120,
10102212,
11201120,
10101211,
01201122,
21122112,
21122112,
20101212,
11201120,
10102212,
11201120,
10101211,
01201122,
21122112,
21122112,
#GOGOEND
20002212,
10001211,
20001211,
58,
20002212,
10001211,
20001211,
50008111,
20002212,
10001211,
20001211,
50008111,
20002212,
10001211,
20001211,
50008222,
12,
22,
22,
22,
22,
22,
22,
20002024,
10201202,
10201204,
10201202,
10201201,
20201202,
10201202,
10201202,
10201201,
20121121,
20121121,
20112121,
20112121,
10021021,
12004000,
10021011,
21104010,
20121121,
20121121,
20112121,
20112121,
10021021,
12004000,
10021011,
21114111,
00000002,
#GOGOSTART
20101212,
11201120,
10102212,
11201120,
10101211,
01201122,
21122112,
21122112,
20101212,
11201120,
10102212,
11201120,
10101211,
01201122,
21122112,
21122112,
20101212,
11201120,
10102212,
11201120,
10101211,
01201122,
21122112,
21122112,
20101212,
11201120,
10102212,
11201120,
10101211,
01201122,
21122112,
21122112,
#GOGOEND
20102012,
00000001,
20102012,
00000001,
20202021,
00001112,
20202022,
10021002,
#END

COURSE:Normal
LEVEL:7
BALLOON:6
#START
#MEASURE 2/4
0001,
#MEASURE 4/4
01020200,
10000002,
02010100,
20000001,
01020200,
10000002,
02010100,
27000080,
1222,
1111,
1222,
1111,
1222,
1112,
20212020,
10121010,
20101012,
0112,
10102202,
0112,
10101201,
00101120,
22,
20002011,
20101012,
0112,
10102202,
0112,
10101201,
00101120,
22,
20002011,
1212,
0212,
1121,
0121,
2122,
0122,
1111,
1111,
1212,
0212,
1121,
0121,
2122,
0122,
10010010,
1111,
2222,
2222,
2222,
2222,
2222,
2222,
2222,
20202022,
2122,
2122,
2122,
2112,
2112,
2112,
2112,
20102011,
1,
#GOGOSTART
20101012,
0112,
10102202,
0112,
10101201,
00101120,
21102110,
21102011,
20101012,
0112,
10102202,
0112,
10101201,
00101120,
21102110,
21102011,
#GOGOEND
2021,
2012,
1011,
58,
2021,
2012,
1011,
58,
2021,
2012,
1011,
58,
2021,
2012,
1011,
5082,
12,
22,
22,
22,
22,
22,
22,
2022,
10200202,
00200204,
00200202,
00200202,
00200202,
00200202,
00200202,
00200202,
2111,
2111,
2122,
1122,
10021020,
14,
10021010,
2141,
2111,
2111,
2122,
1122,
10021020,
14,
10021010,
20104011,
0,
#GOGOSTART
20101012,
0112,
10102202,
0112,
10101201,
00101120,
21102110,
21102011,
20101012,
0112,
10102202,
0112,
10101201,
00101120,
21102110,
21102011,
20101012,
0112,
10102202,
0112,
10101201,
00101120,
21102110,
21102011,
20101012,
0112,
10102202,
0112,
10101201,
00101120,
21102110,
21102011,
#GOGOEND
20102002,
0,
20102002,
0,
20202001,
0011,
22,
10001002,
#END

COURSE:Easy
LEVEL:3
BALLOON:
#START
#MEASURE 2/4
0001,
#MEASURE 4/4
0,
10000002,
0,
20000001,
0,
10000002,
0,
2,
12,
1,
12,
1,
12,
1,
22,
11,
20001001,
0,
20001001,
0,
20001001,
01,
22,
22,
20001001,
0,
20001001,
0,
20001001,
01,
22,
22,
11,
02,
11,
02,
11,
02,
11,
11,
11,
02,
11,
02,
11,
02,
11,
11,
2,
2,
2,
2,
2,
2,
2,
2002,
22,
22,
22,
22,
22,
22,
22,
2022,
2,
#GOGOSTART
20001001,
0,
20001001,
0,
20001001,
01,
22,
22,
20001001,
0,
20001001,
0,
20001001,
01,
22,
22,
#GOGOEND
22,
21,
11,
58,
22,
21,
11,
58,
22,
21,
11,
58,
22,
21,
11,
58,
12,
22,
22,
22,
22,
22,
22,
2022,
20000202,
00000202,
00000202,
00000202,
00000202,
00000202,
00000202,
00000202,
0,
21,
20020000,
12,
1,
14,
5,
84,
0,
21,
20020000,
12,
1,
14,
1,
2042,
0,
#GOGOSTART
20001001,
0,
20001001,
0,
20001001,
01,
22,
22,
20001001,
0,
20001001,
0,
20001001,
01,
22,
22,
20001001,
0,
20001001,
0,
20001001,
01,
22,
22,
20001001,
0,
20001001,
0,
20001001,
01,
22,
22,
#GOGOEND
2,
0,
2,
0,
2,
01,
22,
10001002,
#END
