TITLE:Zerstören
SUBTITLE:--Sukima Altera
BPM:170
WAVE:Zerstören.ogg
OFFSET:-0.107
DEMOSTART:88.942
SCOREMODE:2
MAKER:bol

COURSE:Edit
LEVEL:10
BALLOON:30
SCOREINIT:680
SCOREDIFF:0
#START
#MEASURE 1/16
7,
#SCROLL 1.1
,
#SCROLL 1.2
,
#SCROLL 1.3
,
#SCROLL 1.4
,
#SCROLL 1.5
,
#SCROLL 1.6
,
#SCROLL 1.7
,
#SCROLL 1.8
,
#SCROLL 1.9
,
#SCROLL 2
,
#SCROLL 2.1
,
#SCROLL 2.2
,
#SCROLL 2.3
,
#SCROLL 2.4
,
#SCROLL 2.5
,
#SCROLL 2.6
,
#SCROLL 2.7
,
#SCROLL 2.8
,
#SCROLL 2.9
,
#SCROLL 3
,
#SCROLL 3.2
,
#SCROLL 3.4
,
#SCROLL 3.6
,
#SCROLL 3.8
,
#SCROLL 4
,
#SCROLL 4.2
,
#SCROLL 4.4
,
#SCROLL 4.6
,
#SCROLL 4.8
,
#MEASURE 1/4
#BPMCHANGE 850
#SCROLL 1
8,
#BARLINEON
#MEASURE 4/4
#BPMCHANGE 170
1002102010201222,
1002102010201222,
1002102010201222,
1002102010201222,
1002102010201222,
1002102010201222,
100120100120100120100120,
1212121212121212,
100100202020100100202020100200200200100100200000,
1002102010201222,
1002102010201222,
1002102010201222,
1111201122101000,
1002102010201222,
1002102010201222,
1002102010201222,
1222201111102000,
1002102010201222,
1002102010201222,
1002102010201222,
100100202020100100202020100200100000200000000000,
1002102010201222,
1002102010201210,
1002102012002102,
1002102012001122,
1002102010201222,
1002102010202121,
1002102012001211,
2212200111102040,
#SCROLL 0.5
32,
21,
2022,
1000000010000012,
1022,
1022,
1122,
20002011,
#SCROLL 0.75
12021202,
12021202,
12021212,
1020002010200012,
12021212,
12021212,
12121212,
10101011,
#SCROLL 1
1011101210111012,
1011101210111012,
1011101210111012,
1011101210111012,
1011101210111012,
1011101210111012,
1011101210111012,
1222221111222010,
1022101210212012,
1022101210212012,
1022101210212012,
1022101210212012,
1122102211221022,
1122102212221022,
1122112212221222,
1212121211221212,
#GOGOSTART
1022102210221022,
1022102210221212,
1022102210221022,
1120112011221122,
1021102110211021,
1021102110211212,
1021102110211022,
1022102212121122,
1022112212221122,
1122112212221122,
1022102110221021,
1022102211201122,
1022102210221022,
1022102210221212,
1021102110211022,
1022111122122012,
1022102210221022,
1022102210221212,
1022102210221022,
1120112011221122,
1021102110211021,
1021102110211212,
1021102110211022,
1022102212121122,
1022102210221022,
100000200200100000200200101000400000101000400000,
1022102110221021,
1022102211211122,
1022102210221022,
1022102210221212,
1021112111211122,
1122112211211222,
#GOGOEND
12121212,
102010201020101
#SCROLL 1.25
2,
#SCROLL 1
12121212,
102010201020101
#SCROLL 1.25
2,
#SCROLL 1
1020101
#SCROLL 1.25
2
#SCROLL 1
10201020,
12121212,
12121212,
12121211,
12121212,
102010201020101
#SCROLL 1.25
2,
#SCROLL 1
12121212,
102010201020101
#SCROLL 1.25
2,
#SCROLL 1
1020101
#SCROLL 1.25
2
#SCROLL 1
10201020,
1020102211221122,
1122112212121222,
100100202020100100202020101010200200101010202020,
#SCROLL 0.5
32,
#BARLINEOFF
21,
2022,
1000000010000012,
1022,
1022,
1122,
20002011,
12,
21,
2022,
1000000010000012,
1022,
1022,
1122,
2,
#END

COURSE:Oni
LEVEL:8
BALLOON:20,2,2,2,2
SCOREINIT:930
SCOREDIFF:0
#START
#MEASURE 1/16
7,
#SCROLL 1.1
,
#SCROLL 1.2
,
#SCROLL 1.3
,
#SCROLL 1.4
,
#SCROLL 1.5
,
#SCROLL 1.6
,
#SCROLL 1.7
,
#SCROLL 1.8
,
#SCROLL 1.9
,
#SCROLL 2
,
#SCROLL 2.1
,
#SCROLL 2.2
,
#SCROLL 2.3
,
#SCROLL 2.4
,
#SCROLL 2.5
,
#SCROLL 2.6
,
#SCROLL 2.7
,
#SCROLL 2.8
,
#SCROLL 2.9
,
#SCROLL 3
,
#SCROLL 3.2
,
#SCROLL 3.4
,
#SCROLL 3.6
,
#SCROLL 3.8
,
#SCROLL 4
,
#SCROLL 4.2
,
#SCROLL 4.4
,
#SCROLL 4.6
,
#SCROLL 4.8
,
#MEASURE 1/4
#BPMCHANGE 850
#SCROLL 1
8,
#BARLINEON
#MEASURE 4/4
#BPMCHANGE 170
1002102010002220,
1002102010202220,
1002102010002220,
1002102010202220,
1002102010002220,
1002102010202220,
21212121,
1010101011101110,
78781140,
1002102010002220,
1002102010202220,
1002102010002220,
11102220,
1002102010002220,
1002102010202220,
1002102010002220,
1200202010102000,
1002102010002220,
1002102010202220,
1002102010002220,
78781120,
2001002000101110,
2001002000101210,
2001002000101101,
2001002000101011,
2001002000101110,
2001002000101210,
1010101010101110,
2202200101102000,
32,
21,
2022,
1000000010000011,
1022,
1022,
1122,
20002011,
12,
21,
2022,
1000000010000011,
1022,
1022,
1122,
20002011,
1011101110111011,
1011101110111010,
1011101110111011,
1011101110111010,
1011101110111011,
1011101110111010,
1011101110111011,
1011100011102020,
1022202010200020,
1022202010200020,
1022202010200020,
1022202010200020,
1011101010111010,
1011101010111010,
1110111011101110,
5008,
#GOGOSTART
1011101110111011,
1011101110111010,
1011101110111011,
1011101110111010,
1011101110111011,
1011101110111010,
1011101110101011,
1011101110101010,
1020111010201110,
1020111011102011,
1020111010201110,
1020111011102011,
1020111010201110,
1020111011102011,
1020111010201110,
1020111011102011,
1011201010112010,
1011201010112011,
1011201010112010,
1011201010112011,
1011201010112010,
1011201010112011,
1011201110102011,
1011201110102011,
1020102210201022,
1020102250805080,
1020102210201022,
1020102210201020,
1020102210201022,
1020102210201022,
1110508011105080,
2220508022205080,
#GOGOEND
1111,
1000100010001011,
1111,
1000100010001011,
1000101110001000,
1111,
1122,
10101011,
1111,
1000100010001011,
1111,
1000100010001011,
1000101110001000,
1111,
1122,
10102211,
32,
#BARLINEOFF
21,
2022,
1000000010000011,
1022,
1022,
1122,
20002011,
12,
21,
2022,
1000000010000011,
1022,
1022,
1122,
2,
#END

COURSE:Hard
LEVEL:7
BALLOON:20,2,2,2,2
SCOREINIT:930
SCOREDIFF:0
#START
#MEASURE 1/16
7,
#SCROLL 1.1
,
#SCROLL 1.2
,
#SCROLL 1.3
,
#SCROLL 1.4
,
#SCROLL 1.5
,
#SCROLL 1.6
,
#SCROLL 1.7
,
#SCROLL 1.8
,
#SCROLL 1.9
,
#SCROLL 2
,
#SCROLL 2.1
,
#SCROLL 2.2
,
#SCROLL 2.3
,
#SCROLL 2.4
,
#SCROLL 2.5
,
#SCROLL 2.6
,
#SCROLL 2.7
,
#SCROLL 2.8
,
#SCROLL 2.9
,
#SCROLL 3
,
#SCROLL 3.2
,
#SCROLL 3.4
,
#SCROLL 3.6
,
#SCROLL 3.8
,
#SCROLL 4
,
#SCROLL 4.2
,
#SCROLL 4.4
,
#SCROLL 4.6
,
#SCROLL 4.8
,
#MEASURE 1/4
#BPMCHANGE 850
#SCROLL 1
8,
#BARLINEON
#MEASURE 4/4
#BPMCHANGE 170
1002102010002220,
1002102010202220,
1002102010002220,
1002102010202220,
1002102010002220,
1002102010202220,
21212121,
1010101010101110,
78781140,
1002102010002220,
1002102010202220,
1002102010002220,
11102220,
1002102010002220,
1002102010202220,
1002102010002220,
1200202010102000,
1002102010002220,
1002102010202220,
1002102010002220,
78781120,
2001002000101110,
2001002000101010,
2001002000101101,
2001002000101010,
2001002000101110,
2001002000101010,
1010101010101110,
2202200101102000,
32,
21,
2022,
1000000010000011,
1022,
1022,
1122,
20002011,
12,
21,
2022,
1000000010000011,
1022,
1022,
1122,
20002011,
1011101110101000,
1011101110101000,
1010101110111000,
1000101110101000,
1000101110111000,
1011101110101000,
1000101110101000,
1011101010102020,
1022202220101000,
1022202220101000,
1022202010200020,
1022202010200020,
1011101010111010,
1011101010101010,
11111111,
5008,
#GOGOSTART
1010201010111010,
2000102010201011,
11202121,
2010101020001011,
1020101110201010,
21112121,
21212121,
2010201020101011,
1010201010111010,
2000102010201011,
11202121,
2010101020001011,
1020101110201010,
21112121,
21212121,
2010201020101011,
1011101020001010,
1011101020102011,
11112121,
2010101020101011,
1010101110101010,
21212121,
11212121,
11212121,
1011101020001010,
1011101020102011,
11112121,
2010101020101011,
1010101110101010,
21212121,
2010101011101010,
2220101022201010,
#GOGOEND
1111,
1000100010001011,
1111,
1000100010001011,
1000101110001000,
1111,
1122,
10101011,
1111,
1000100010001011,
1111,
1000100010001011,
1000101110001000,
1111,
1122,
10102211,
32,
21,
2022,
1000000010000011,
1022,
1022,
1122,
20002011,
12,
21,
2022,
1000000010000011,
1022,
1022,
1122,
2,
#END

COURSE:Normal
LEVEL:6
BALLOON:15
SCOREINIT:1500
SCOREDIFF:0
#START
#MEASURE 1/16
7,
#SCROLL 1.1
,
#SCROLL 1.2
,
#SCROLL 1.3
,
#SCROLL 1.4
,
#SCROLL 1.5
,
#SCROLL 1.6
,
#SCROLL 1.7
,
#SCROLL 1.8
,
#SCROLL 1.9
,
#SCROLL 2
,
#SCROLL 2.1
,
#SCROLL 2.2
,
#SCROLL 2.3
,
#SCROLL 2.4
,
#SCROLL 2.5
,
#SCROLL 2.6
,
#SCROLL 2.7
,
#SCROLL 2.8
,
#SCROLL 2.9
,
#SCROLL 3
,
#SCROLL 3.2
,
#SCROLL 3.4
,
#SCROLL 3.6
,
#SCROLL 3.8
,
#SCROLL 4
,
#SCROLL 4.2
,
#SCROLL 4.4
,
#SCROLL 4.6
,
#SCROLL 4.8
,
#MEASURE 1/4
#BPMCHANGE 850
#SCROLL 1
8,
#BARLINEON
#MEASURE 4/4
#BPMCHANGE 170
2001002000101010,
2001002000101010,
2001002000101010,
2001002000101010,
2001002000101010,
2001002000101010,
2222,
11101111,
58581140,
2001002000101010,
2001002000101010,
2001002000101010,
11102020,
2001002000101010,
2001002000101010,
2001002000101010,
10221120,
2001002000101010,
2001002000101010,
2001002000101010,
58581120,
2001002000101010,
2001002000101010,
2001002000101010,
2001002000101010,
2001002000101010,
2001002000101010,
2001002000101010,
5084,
32,
21,
2022,
10001001,
1022,
1022,
1122,
20002011,
12,
21,
2022,
10001001,
1022,
1022,
1122,
20002011,
20102011,
20102011,
20102120,
20112012,
20102021,
20102021,
2222,
20112011,
20112011,
20112011,
20112121,
20112012,
20112021,
20112021,
20212120,
5008,
#GOGOSTART
20102011,
20102011,
20102120,
20112012,
20102021,
20102021,
2222,
20112011,
20112011,
20112011,
20212121,
20112012,
20112020,
20112020,
20212120,
20102220,
20102011,
20102011,
20102120,
20112012,
20102021,
20102021,
2222,
20112011,
20112011,
20114040,
20212021,
20112012,
20112020,
20112020,
20212020,
20102220,
#GOGOEND
1111,
10101011,
1111,
10101011,
10111010,
1111,
1122,
10101011,
1111,
10101011,
1111,
10101011,
10111010,
1111,
1122,
10102211,
32,
#BARLINEOFF
21,
2022,
10001001,
1022,
1022,
1122,
20002011,
12,
21,
2022,
10001001,
1022,
1022,
1122,
2,
#END

COURSE:Easy
LEVEL:3
BALLOON:10
SCOREINIT:2450
SCOREDIFF:0
#START
#MEASURE 1/16
7,
#SCROLL 1.1
,
#SCROLL 1.2
,
#SCROLL 1.3
,
#SCROLL 1.4
,
#SCROLL 1.5
,
#SCROLL 1.6
,
#SCROLL 1.7
,
#SCROLL 1.8
,
#SCROLL 1.9
,
#SCROLL 2
,
#SCROLL 2.1
,
#SCROLL 2.2
,
#SCROLL 2.3
,
#SCROLL 2.4
,
#SCROLL 2.5
,
#SCROLL 2.6
,
#SCROLL 2.7
,
#SCROLL 2.8
,
#SCROLL 2.9
,
#SCROLL 3
,
#SCROLL 3.2
,
#SCROLL 3.4
,
#SCROLL 3.6
,
#SCROLL 3.8
,
#SCROLL 4
,
#SCROLL 4.2
,
#SCROLL 4.4
,
#SCROLL 4.6
,
#SCROLL 4.8
,
#MEASURE 1/4
#BPMCHANGE 850
#SCROLL 1
8,
#BARLINEON
#MEASURE 4/4
#BPMCHANGE 170
1111,
10101011,
1111,
1111,
1111,
1111,
2222,
5008,
5084,
1110,
10101011,
1111,
5858,
1111,
1110,
1111,
00508058,
1110,
10101011,
1111,
58580020,
1111,
1000100010010000,
1111,
1111,
1111,
1111,
5,
0008,
3,
,
2,
,
1,
,
2,
2,
3,
,
2,
,
1,
,
2,
1111,
1111,
1111,
1111,
1111,
1111,
1111,
1111,
1110,
1111,
1111,
1111,
1111,
5,
0008,
5,
0008,
#GOGOSTART
1111,
1111,
1111,
10101011,
1111,
1111,
1111,
10101011,
1111,
1111,
1111,
10101011,
1111,
1111,
1111,
1102,
1111,
1111,
1111,
10101011,
1111,
1111,
1111,
10101011,
1111,
1144,
1111,
10101011,
1111,
1111,
1111,
10101011,
#GOGOEND
1111,
1110,
1111,
1110,
1011,
1111,
1111,
1110,
1111,
1110,
1111,
1110,
1011,
1111,
1111,
1120,
3,
#BARLINEOFF
#SCROLL 0.5
,
2,
,
1,
,
2,
2,
3,
,
2,
,
1,
,
2,
2,
#END
