TITLE:Rainy Night II ~M̐X~
TITLEEN:Rainy Night II -Forest of Lost Trust-
SUBTITLE:--Taichenko
BPM:174
WAVE:Rainy Night II.ogg
PREIMAGE:Rainy Night II.png
OFFSET:-5.518
SONGVOL:100
SEVOL:100
DEMOSTART:49.31
MAKER:Taichenko_oni & Komi
SCOREMODE:2

COURSE:Oni
LEVEL:8
BALLOON:
SCOREINIT:
SCOREDIFF:
#START
#BPMCHANGE 174
10200120,
10202120,
10200120,
1000200100102000,
10200120,
1000200020102011,
10200120,
1000200100102000,
10200120,
1000200020102011,
10200120,
1000200100102000,
1000200000102011,
1010201120102011,
1010201110102022,
1010200100102000,
0,
10200120,
1000200000102011,
10200120,
1000200100102000,
10200120,
1000200000102011,
10200120,
1000200100102000,
10201120,
2000100120002011,
1000200210102010,
1000200100102000,
1021,
0122,
1023,
00105008,
#GOGOSTART
1011201120112002,
1011201120112022,
1011201120112002,
1011201110102222,
1011201120112002,
1011201120112022,
1011201120112002,
1011201110102222,
1011201102102012,
1010201122102222,
1011201202102012,
1010201122112222,
1011201102102012,
1010201122102022,
1011201202102012,
1211222210202222,
#GOGOEND
1000200210102022,
1010201212102022,
1000200210102011,
1010202102102000,
1000200210102022,
1010201212102022,
1010200210102011,
1010202102112000,
1000200210102010,
0010201000102011,
1000201000102011,
1010200100102000,
1000200200102000,
10210120,
1000200200102000,
1000200100102000,
30000100,
1000000000100011,
1000200200102010,
1000200100102000,
1010202220102022,
1010201210102011,
1010202220102022,
1010200100101011,
1000200210102010,
0010201000102011,
1000200210102010,
0010202210102000,
1000200210102022,
1010201110102022,
1011201011102012,
1010200102102000,
1000200110102010,
0010201110102000,
1011201002102010,
0010202210102020,
1000200200102022,
1010200200102222,
1001201110112010,
1111201030030030,
0,
#GOGOSTART
1001201110102022,
1010201210102022,
1110201110102022,
1210201120102011,
1001202212102022,
1010201202102022,
1011201110112022,
1111201120102022,
1001202210102012,
1010202222102011,
1011201112102022,
1010200120102022,
1002102010221020,
1002102012221020,
1021102210211020,
122110211010
#GOGOEND
2222,
#GOGOSTART
1021221021212022,
1021201121202022,
1021221021212011,
2011201122102011,
1021221021212022,
1021201121202022,
1021221021202012,
#GOGOEND
1011201200102222,
#GOGOSTART
1021221020212012,
1011201212102011,
1011201121212022,
1021221022212011,
100000100100200000101010100000100100200000100100,
100000100100200000200200200000100000200000101010,
1010201111102010,
#GOGOEND
32,
1010201210201120,
1010201111201120,
1010201210201120,
1111201210212120,
1010201210201120,
1010201111201120,
1010201210201120,
1221221212212122,
1,
#SCROLL 0.8
3,
#END

COURSE:Hard
LEVEL:6
BALLOON:75
#START
#MEASURE 4/4
10200120,
10200120,
10200120,
10211120,
40200120,
10200120,
10200120,
10211120,
10200120,
10201120,
10200120,
10211120,
40200120,
10201120,
10200120,
10211120,
1,
#SCROLL 0.75
20200220,
20202220,
20200220,
20202220,
40200220,
20202220,
20200220,
20202220,
40202220,
2000200220202000,
20202220,
2000200220202000,
4,
0,
0004,
0,
#SCROLL 1.00
#GOGOSTART
11211021,
11211022,
21211021,
10212122,
20120120,
11120122,
10120120,
11120122,
11211021,
11211022,
21211021,
10212122,
20120120,
11120122,
10120120,
11122122,
#GOGOEND
2,
00000012,
1,
1002,
1,
0,
2,
1001,
1,
0,
1,
2,
2,
0,
2,
2,
#SCROLL 0.50
1,
7,
0,
0,
0,
0,
0,
00008011,
10201120,
10201120,
22101122,
10221120,
40201120,
10221120,
22101122,
10221120,
40201121,
00201120,
21220201,
02211212,
1,
#SCROLL 0.75
3,
3,
30000000
#SCROLL 1.00
40040040,
0,
#GOGOSTART
22222011,
22201111,
10112110,
11221122,
10112210,
1010202202202000,
22221021,
22202222,
10111012,
10221120,
11101120,
2020100110102000,
11111111,
11111111,
22222222,
11112222,
10211120,
11211120,
21211120,
1010201010102011,
11211120,
21211120,
11211121,
2010201010102222,
20211120,
11211120,
21211120,
11211120,
11211120,
21211120,
1010201110102010,
#GOGOEND
2,
#SCROLL 0.50
11211222,
11211212,
11211222,
11211222,
11211212,
11211222,
11211212,
21221222,
1,
1,
#END

COURSE:Normal
LEVEL:4
BALLOON:50
#START
#MEASURE 4/4
1102,
1102,
1102,
1102,
4002,
1102,
1102,
1100,
4002,
1102,
1102,
1102,
4002,
1102,
1102,
1100,
1,
#SCROLL 0.75
2202,
2202,
2202,
2202,
4202,
2202,
2202,
2202,
4202,
2202,
2202,
2202,
4,
0,
0004,
0,
#SCROLL 1.00
#GOGOSTART
1210,
1120,
2210,
1220,
2120,
1120,
2210,
1120,
1210,
1120,
2210,
1220,
2120,
1120,
2210,
10102022,
#GOGOEND
2,
0,
1,
1,
1,
0,
2,
1001,
1,
0,
1,
2,
2,
0,
2,
2,
#SCROLL 0.50
1,
7,
0,
0,
0,
0,
0,
08,
1200,
1210,
1200,
1210,
1200,
1210,
1200,
1210,
10200011,
0110,
20220202,
00011010,
1,
#SCROLL 0.75
3,
3,
30000000
#SCROLL 1.00
40040040,
0,
#GOGOSTART
2221,
2211,
2211,
2212,
1111,
20220220,
2221,
2211,
2221,
2211,
2211,
2212,
1111,
20220220,
2222,
1122,
1112,
1212,
1112,
1212,
1112,
1212,
1112,
10202022,
2112,
1212,
1112,
1212,
1112,
1212,
10111020,
#GOGOEND
1,
#SCROLL 0.50
10201110,
20102011,
1212,
11102010,
20111010,
20202220,
10201110,
20102022,
1,
1,
#END

COURSE:Easy
LEVEL:3
BALLOON:25
#START
#MEASURE 4/4
1,
2001,
1,
0,
4,
2001,
1,
0,
1,
2001,
1,
0,
4,
2001,
1,
1,
0,
#SCROLL 0.75
2,
2,
2,
2002,
4,
0,
2,
2022,
4220,
2002,
0220,
0222,
4,
0,
0004,
0,
#GOGOSTART
5,
0,
8002,
0201,
1,
0,
0001,
0111,
1002,
0011,
1001,
01,
5,
08,
2,
22,
#GOGOEND
2,
0,
1,
1,
1,
0,
2,
1001,
1,
0,
1,
2,
2,
0,
2,
2,
#SCROLL 0.50
1,
7,
0,
0,
0,
0,
0,
08,
1001,
1,
1001,
11,
2,
0001,
1,
01,
1001,
11,
2202,
2011,
1,
#SCROLL 0.75
3,
3,
3000
#SCROLL 1.00
4004,
0,
#SCROLL 0.75
#GOGOSTART
2,
21,
21,
21,
1,
22,
2,
21,
2,
21,
12,
11,
5,
08,
58,
21,
1,
21,
2,
12,
1,
21,
2,
1022,
2,
21,
2,
12,
1,
21,
1110,
#GOGOEND
2,
#SCROLL 0.50
10200200,
10200200,
10200200,
10200200,
10200200,
10200200,
10200200,
10200200,
1,
1,
#END
