1
0
mirror of synced 2025-02-25 06:15:04 +01:00

1230 lines
10 KiB
Plaintext
Raw Blame History

This file contains ambiguous Unicode characters

This file contains Unicode characters that might be confused with other characters. If you think that this is intentional, you can safely ignore this warning. Use the Escape button to reveal them.

TITLE:MECHANICAL GOD
SUBTITLE:--AZALI × Crow
BPM:180
WAVE:MECHANICAL GOD.ogg
OFFSET:-0.965
DEMOSTART:41.965
MAKER:Komi
COURSE:Easy
LEVEL:2
BALLOON:10
SCOREINIT:
SCOREDIFF:
NOTESDESIGNER0:Komi
#START
#MEASURE 3/4
000,
,
,
,
,
,
,
,
,
200,
200,
201,
100,
100,
200,
101,
100,
100,
200,
101,
100,
200,
100,
500,
800,
200,
200,
201,
100,
100,
200,
201,
100,
200,
200,
201,
100,
200,
100,
900,
008,
#GOGOSTART
100,
100,
110,
100,
200,
200,
220,
100,
100,
100,
101,
100,
100,
100,
202,
200,
100,
100,
110,
100,
200,
200,
110,
100,
508,
100,
110,
100,
100,
100,
202,
200,
100,
100,
110,
100,
200,
200,
110,
100,
100,
101,
100,
100,
100,
100,
220,
101,
100,
100,
110,
100,
200,
200,
110,
100,
508,
580,
110,
100,
100,
100,
#GOGOEND
220,
200,
200,
201,
010,
100,
200,
580000,
,
,
,
,
,
,
,
,
#END
COURSE:Normal
LEVEL:4
BALLOON:16
SCOREINIT:
SCOREDIFF:
NOTESDESIGNER1:Komi
#START
#MEASURE 3/4
000,
,
,
,
,
,
,
,
,
202,
202,
202,
101,
101,
201,
201,
101,
201,
201,
122,
101,
201,
101,
500,
800200,
202,
202,
202,
101,
101,
201,
201,
100100,
201,
202,
201,
101,
201,
101,
900,
008,
#GOGOSTART
120,
120,
110,
101,
220,
220,
210,
101,
102,
102,
110,
110,
110,
110,
221,
200200,
120,
120,
110,
101,
220,
220,
210,
101,
508,
102,
211,
210,
110,
110,
221,
200200,
120,
120,
110,
101,
220,
220,
210,
101,
102,
102,
110,
110,
110,
110,
222,
112,
120,
120,
110,
101,
220,
220,
210,
101,
508,
582,
221,
210,
110,
110,
#GOGOEND
222,
200200,
102,
211,
221,
200,
200,
120000,
,
,
,
,
,
,
,
,
#END
COURSE:Hard
LEVEL:6
BALLOON:22
SCOREINIT:
SCOREDIFF:
NOTESDESIGNER2:Komi
#START
#MEASURE 3/4
000,
,
,
,
,
,
,
,
,
201212,
101212,
101210,
101210,
101110,
202220,
101110,
201,
201212,
101212,
101212,
101112,
101112,
101210,
101101,
202202,
201212,
101212,
101112,
101112,
101101,
202202,
202220,
101110,
201222,
101222,
101222,
101212,
101212,
101110,
900,
008,
#GOGOSTART
101201,
101201,
101110,
101110,
101201,
202202,
101110,
101110,
101121,
101121,
101120,
101120,
101122,
112210,
111,
200200,
101212,
101212,
120101,
120101,
200202,
200202,
201011,
101,
101212,
101212,
101210,
101210,
101112,
101112,
111,
200200,
101212,
101212,
101201,
101201,
100202,
200202,
201011,
101011,
101212,
101212,
101112,
101112,
101210,
101210,
111,
222,
102201,
202201,
201102,
101102,
101200,
101200,
200121,
100121,
101101,
201110,
201101,
201101,
211,
211,
#GOGOEND
111,
200100,
100,
,
000111122,
100,
200,
120000,
,
,
,
,
,
,
,
,
#END
COURSE:Oni
LEVEL:8
SCOREINIT:
SCOREDIFF:
NOTESDESIGNER3:Komi
#START
#MEASURE 3/4
000,
,
,
,
,
,
,
,
,
211211,
211111,
200020002022,
101111,
201020102011,
201020201021,
222112,
101111,
202111,
202112,
212211,
121021,
102212,
102212,
122122112,
200200,
221221,
221121,
201010201022,
101111,
200020102011,
200020102021,
211221,
201111,
200011200100100200,
212012,
212212,
212212,
102212,
102212,
100011200100200100,
#MEASURE 1/64
#SCROLL 1
2,
#SCROLL 8
0,
,
,
,
,
,
,
#BARLINEOFF
#SCROLL 1
1,
#BARLINEON
#SCROLL 8
0,
,
,
,
,
,
,
#BARLINEOFF
#SCROLL 1
1,
#BARLINEON
#SCROLL 8
0,
,
,
,
,
,
,
#BARLINEOFF
#SCROLL 1
1,
#BARLINEON
#SCROLL 8
0,
,
,
,
,
,
,
#BARLINEOFF
#SCROLL 1
2,
#BARLINEON
#SCROLL 8
0,
,
,
,
,
,
,
,
,
,
,
,
,
,
,
#MEASURE 3/4
#GOGOSTART
#SCROLL 1
211211,
211121,
201020102022,
101111,
201020102011,
201020201021,
222112,
101111,
200020101022,
112112,
212212,
201121,
211121,
212212,
122122112,
200200,
221221,
221121,
201010201022,
101111,
200020102011,
201020102021,
211221,
201111,
202112,
201012,
212212,
212212,
102212,
102212,
122122112,
#MEASURE 1/32
2,
#SCROLL 4
0,
,
,
,
,
,
,
,
,
,
,
#BARLINEOFF
#SCROLL 1
2,
#BARLINEON
#SCROLL 4
0,
,
,
,
,
,
,
,
,
,
,
#MEASURE 3/4
#SCROLL 1
210212,
212121,
202010102011,
201221,
201020102011,
201020102012,
122112,
100000100100100111,
200022100100100200,
212111,
201122,
112111,
200111200100200100,
200100200200100222,
100011200100100200,
211120,
221221,
221121,
201010201022,
101111,
201020102011,
201020102021,
211221,
201111,
200020101022,
112211,
201121,
202212,
102212,
112212,
#GOGOEND
122122112,
200000010000,
000200000000202010002000100100200200,
122122112,
100000100100200010001000100100200200,
110,
200,
121000000000,
,
,
,
,
,
,
,
,
#END
COURSE:Edit
LEVEL:10.6
SCOREINIT:
SCOREDIFF:
NOTESDESIGNER4:Komi
#START
#MEASURE 1/24
#SCROLL 10
0,
#SCROLL 9.94444
0,
#SCROLL 9.88889
0,
#SCROLL 9.83333
0,
#SCROLL 9.77778
0,
#SCROLL 9.72222
0,
#SCROLL 9.66667
0,
#SCROLL 9.61111
0,
#SCROLL 9.55556
0,
#SCROLL 9.5
0,
#SCROLL 9.44444
0,
#SCROLL 9.38889
0,
#SCROLL 9.33333
0,
#SCROLL 9.27778
0,
#SCROLL 9.22222
0,
#SCROLL 9.16667
0,
#SCROLL 9.11111
0,
#SCROLL 9.05556
0,
#SCROLL 9
0,
#SCROLL 8.94444
0,
#SCROLL 8.88889
0,
#SCROLL 8.83333
0,
#SCROLL 8.77778
0,
#SCROLL 8.72222
0,
#SCROLL 8.66667
0,
#SCROLL 8.61111
0,
#SCROLL 8.55556
0,
#SCROLL 8.5
0,
#SCROLL 8.44444
0,
#SCROLL 8.38889
0,
#SCROLL 8.33333
0,
#SCROLL 8.27778
0,
#SCROLL 8.22222
0,
#SCROLL 8.16667
0,
#SCROLL 8.11111
0,
#SCROLL 8.05556
0,
#SCROLL 8
0,
#SCROLL 7.94444
0,
#SCROLL 7.88889
0,
#SCROLL 7.83333
0,
#SCROLL 7.77778
0,
#SCROLL 7.72222
0,
#SCROLL 7.66667
0,
#SCROLL 7.61111
0,
#SCROLL 7.55556
0,
#SCROLL 7.5
0,
#SCROLL 7.44444
0,
#SCROLL 7.38889
0,
#SCROLL 7.33333
0,
#SCROLL 7.27778
0,
#SCROLL 7.22222
0,
#SCROLL 7.16667
0,
#SCROLL 7.11111
0,
#SCROLL 7.05556
0,
#SCROLL 7
0,
#SCROLL 6.94444
0,
#SCROLL 6.88889
0,
#SCROLL 6.83333
0,
#SCROLL 6.77778
0,
#SCROLL 6.72222
0,
#SCROLL 6.66667
0,
#SCROLL 6.61111
0,
#SCROLL 6.55556
0,
#SCROLL 6.5
0,
#SCROLL 6.44444
0,
#SCROLL 6.38889
0,
#SCROLL 6.33333
0,
#SCROLL 6.27778
0,
#SCROLL 6.22222
0,
#SCROLL 6.16667
0,
#SCROLL 6.11111
0,
#SCROLL 6.05556
0,
#SCROLL 6
0,
#SCROLL 5.94444
0,
#SCROLL 5.88889
0,
#SCROLL 5.83333
0,
#SCROLL 5.77778
0,
#SCROLL 5.72222
0,
#SCROLL 5.66667
0,
#SCROLL 5.61111
0,
#SCROLL 5.55556
0,
#SCROLL 5.5
0,
#SCROLL 5.44444
0,
#SCROLL 5.38889
0,
#SCROLL 5.33333
0,
#SCROLL 5.27778
0,
#SCROLL 5.22222
0,
#SCROLL 5.16667
0,
#SCROLL 5.11111
0,
#SCROLL 5.05556
0,
#SCROLL 5
0,
#SCROLL 4.94444
0,
#SCROLL 4.88889
0,
#SCROLL 4.83333
0,
#SCROLL 4.77778
0,
#SCROLL 4.72222
0,
#SCROLL 4.66667
0,
#SCROLL 4.61111
0,
#SCROLL 4.55556
0,
#SCROLL 4.5
0,
#SCROLL 4.44444
0,
#SCROLL 4.38889
0,
#SCROLL 4.33333
0,
#SCROLL 4.27778
0,
#SCROLL 4.22222
0,
#SCROLL 4.16667
0,
#SCROLL 4.11111
0,
#SCROLL 4.05556
0,
#SCROLL 4
0,
#SCROLL 3.94444
0,
#SCROLL 3.88889
0,
#SCROLL 3.83333
0,
#SCROLL 3.77778
0,
#SCROLL 3.72222
0,
#SCROLL 3.66667
0,
#SCROLL 3.61111
0,
#SCROLL 3.55556
0,
#SCROLL 3.5
0,
#SCROLL 3.44444
0,
#SCROLL 3.38889
0,
#SCROLL 3.33333
0,
#SCROLL 3.27778
0,
#SCROLL 3.22222
0,
#SCROLL 3.16667
0,
#SCROLL 3.11111
0,
#SCROLL 3.05556
0,
#SCROLL 3
F,
#SCROLL 2.94444
0,
#SCROLL 2.88889
0,
#SCROLL 2.83333
0,
#SCROLL 2.77778
0,
#SCROLL 2.72222
0,
#SCROLL 2.66667
F,
#SCROLL 2.61111
0,
#SCROLL 2.55556
0,
#SCROLL 2.5
0,
#SCROLL 2.44444
0,
#SCROLL 2.38889
0,
#SCROLL 2.33333
F,
#SCROLL 2.27778
0,
#SCROLL 2.22222
0,
#SCROLL 2.16667
0,
#SCROLL 2.11111
0,
#SCROLL 2.05556
0,
#SCROLL 2
F,
#SCROLL 1.94444
0,
#SCROLL 1.88889
0,
#SCROLL 1.83333
0,
#SCROLL 1.77778
0,
#SCROLL 1.72222
0,
#SCROLL 1.66667
F,
#SCROLL 1.61111
0,
#SCROLL 1.55556
0,
#SCROLL 1.5
0,
#SCROLL 1.44444
0,
#SCROLL 1.38889
0,
#SCROLL 1.33333
F,
#SCROLL 1.27778
0,
#SCROLL 1.22222
0,
#SCROLL 1.16667
0,
#SCROLL 1.11111
0,
#SCROLL 1.05556
0,
#MEASURE 3/4
#SCROLL 1
211211,
211111,
201120102022,
100010101012,
101020102011,
201020201021,
202020101122,
100010101210,
200020101210,
202112,
201120201010,
121221,
102212,
102212,
122122112,
201110201110,
221221,
221121,
201010201022,
100010101210,
201020102211,
201020102021,
201010202011,
200010101210,
200011200100100200,
201020221020,
200111200200100200,
212212,
222222200200100200,
222222200200100200,
101120121210,
#MEASURE 1/16
#SCROLL 1
2,
#SCROLL 1.02083
2,
#SCROLL 1.04167
2,
#SCROLL 1.0625
2,
#SCROLL 1.08333
2,
#SCROLL 1.10417
2,
#SCROLL 1.125
2,
#SCROLL 1.14583
2,
#SCROLL 1.16667
2,
#SCROLL 1.1875
2,
#SCROLL 1.20833
2,
#SCROLL 1.22917
2,
#MEASURE 3/4
#GOGOSTART
#SCROLL 1.25
101020112210,
100020112110,
112210212120,
200100200100100000200020100020100000,
101010200000100000100100200100100000,
112210212110,
1022101121
#SCROLL 3
58,
#SCROLL 1.25
100000200100200100100000200000202020,
200000201000201020102220,
112210212110,
112110212120,
212110212120,
202010212110,
202020202020100000200100200100101010,
100020200200100020200200100020200200,
100000200100200100100000101010101010,
100120212110,
100120212110,
112210212120,
200100200100100000200020100020100000,
100210212110,
102210212110,
102210212112,
202121101022,
#SCROLL 1.25
100010001000100010001000100010001000100010001000
#SCROLL 1.25
200000100000200200200000,
100010212110,
212110212120,
121212211211,
202020202020100000200100200100100000,
202020202020100000200100200100101010,
100020200200100020200200100020200200,
#MEASURE 1/16
2,
2,
2,
2,
2,
2,
2,
2,
2,
2,
2,
2,
#MEASURE 3/4
112210212110,
100210212110,
112110212120,
200100200100100000200020100020100000,
100210212121,
112110212110,
102210212111,
100000200100200100100000100100202020,
100210212110,
222210112210,
212110212122,
212110212120,
200000101010200000200100200100100000,
202020202020100000200100200100101010,
202210221022,
100000200200100200101010100200202020,
100210212110,
102210212110,
112110212122,
200100200100100000200020100020100000,
112110212110,
112210212120,
102210212111,
100200100200100000101010100000200200,
100010001000100010001000100010001000100010001000200000100000200200200000,
102020202020100000200100200100100000,
112110212120,
200200100100200200100100200100202020,
100000101010200000100100200200100000,
101010200000100100200200100000101010,
#GOGOEND
#SCROLL 1.25
1
#SCROLL 1.22222
2
#SCROLL 1.19444
2
#SCROLL 1.16667
1
#SCROLL 1.13889
2
#SCROLL 1.11111
2
#SCROLL 1.08333
1
#SCROLL 1.05556
1
#SCROLL 1.02778
2,
#SCROLL 1
200000010000,
000200000000
#SCROLL 1
20
#SCROLL 0.989583
20
#SCROLL 0.979167
1000
#SCROLL 0.958333
2000
#SCROLL 0.9375
100
#SCROLL 0.921875
100
#SCROLL 0.90625
200
#SCROLL 0.890625
200,
#SCROLL 0.875
1
#SCROLL 0.854167
2
#SCROLL 0.833333
2
#SCROLL 0.8125
1
#SCROLL 0.791667
2
#SCROLL 0.770833
2
#SCROLL 0.75
1
#SCROLL 0.729167
1
#SCROLL 0.708333
2,
#SCROLL 0.6875
100000
#SCROLL 0.65625
100
#SCROLL 0.640625
100
#SCROLL 0.625
2000
#SCROLL 0.604167
1000
#SCROLL 0.583333
1000
#SCROLL 0.5625
100
#SCROLL 0.546875
100
#SCROLL 0.53125
200
#SCROLL 0.515625
200,
#SCROLL 0.5
1
#BARLINEOFF
00
#SCROLL 0.490506
0100
#SCROLL 0.477848
0000
#SCROLL 0.46519
0,
200
#SCROLL 0.452532
0000
#SCROLL 0.439873
00000,
00
#SCROLL 0.420886
11
#SCROLL 0.417722
20000000
#SCROLL 0.405063
00000000
#SCROLL 0.392405
0000,
000
#SCROLL 0.376582
0000000
#SCROLL 0.35443
00,
00000
#SCROLL 0.332278
000000
#SCROLL 0.313291
0,
000000000
#SCROLL 0.281646
000,
0000000
#SCROLL 0.25
00000,
,
,
,
,
#END