1
0
mirror of synced 2024-12-20 19:35:58 +01:00
OpenTaiko/Test/Songs/S2 Taiko Towers/01 - Sweet/DeceiverTerminus (Tower - Ama)/DeceiverTerminus.tja

372 lines
3.2 KiB
Plaintext

TITLE:Deceiver's Terminus
SUBTITLE:--H5
WAVE:DeceiverTerminus.ogg
BPM:190.00
OFFSET:-0.236
DEMOSTART:284.408
SIDE:Normal
MAKER:Komi
COURSE:Tower
LEVEL:5
LIFE:13
BALLOON:6,8,6,11
#START
#MEASURE 4/4
0,
0,
0,
0,
10020000,
0,
10020000,
02,
10020000,
0,
10020010,
02000000,
10020000,
0,
10020000,
02,
10020000,
0,
10020010,
02000000,
10020201,
01010000,
10020201,
01010000,
10020202,
01020000,
10020010,
02000000,
10020201,
01010000,
10020201,
01010000,
10020202,
01020200,
10020010,
02700008,
2221,
00101120,
10202001,
00211011,
2221,
10201120,
10120121,
0121,
2221,
00101120,
10202001,
00211011,
2221,
10201120,
1111,
10101011,
1111,
10101022,
1111,
1111,
2222,
5008,
#GOGOSTART
20120102,
01020110,
20120102,
01020012,
01020102,
01020110,
20120201,
01010112,
20120102,
01020110,
20120102,
01020012,
01020102,
01020110,
20120201,
01010110,
10020201,
01010000,
10020201,
01010000,
10020202,
01020000,
10020010,
02000000,
10020201,
01010000,
10020201,
01010000,
10020202,
01020000,
10020010,
02001011,
#GOGOEND
2221,
00101120,
10202001,
00211011,
2221,
10201120,
10120121,
0121,
2221,
00101120,
10202001,
00211011,
2221,
10201120,
1111,
10101011,
1111,
10101022,
1111,
1111,
2222,
0004,
1111,
1158,
1111,
5822,
0111,
10101111,
2111,
10101111,
2121,
20201111,
1111,
5822,
1111,
10101111,
1111,
10101110,
10020000,
0,
10020000,
02,
10020000,
0,
10020010,
02000000,
10020000,
0,
10020000,
00000200,
00100200,
0,
#MEASURE 2/4
0,
#BPMCHANGE 152.000000
#MEASURE 4/4
10000000
#SCROLL 0.850000
100000000
#SCROLL 0.730000
2000000,
0
#SCROLL 0.580000
20000000000,
#SCROLL 0.480000
1122,
1121,
1122,
#MEASURE 15/16
102000102000000,
#BPMCHANGE 152.000000
#MEASURE 4/4
#SCROLL 1.000000
22101120,
20102210,
11202021,
11212111,
#GOGOSTART
10210112,
10102021,
10112020,
10112021,
10210112,
10102021,
10112020,
10112021,
10000004,
4444,
4444,
4000400040040040,
4444,
4444,
4444,
4004004040004010,
#BPMCHANGE 205.000000
#GOGOEND
#SCROLL 0.600000
2,
0,
10020000,
02,
10020000,
0,
10020010,
02000000,
10020000,
0,
10020000,
02,
10020000,
0,
10010010,
02000000,
#SCROLL 0.800000
10020201,
01010000,
10020201,
01010000,
10020202,
01020000,
10020010,
02000000,
#SCROLL 1.000000
10020201,
01010000,
10020201,
01010020,
1112,
1212,
1111,
70000008,
2221,
00101120,
10202001,
00211011,
2221,
10201120,
10120121,
0121,
2221,
00101120,
10202001,
00211011,
2221,
10201120,
1111,
10101011,
1111,
10101022,
1111,
1111,
2222,
4,
#GOGOSTART
1111,
10120020,
1111,
10120020,
1111,
10120020,
#GOGOEND
20202220,
2224,
#GOGOSTART
1111,
10120020,
1111,
10120020,
1111,
10120020,
1111,
10120111,
10020101,
01010011,
10020101,
01012222,
#GOGOEND
2111,
10101111,
2111,
10101120,
200
#GOGOSTART
20101,
01010011,
10020101,
01012222,
#GOGOEND
2111,
10101111,
2111,
10101120,
#BPMCHANGE 200.000000
20120102,
01020110,
20120102,
01020012,
01020102,
01020110,
20120201,
01010112,
20120102,
01020110,
20120102,
01020012,
01020102,
01020110,
20120201,
01010110,
#SCROLL 0.800000
10020201,
01010000,
10020201,
01010000,
10020202,
01020000,
10020010,
02000000,
10020201,
01010000,
10020201,
01010000,
10020202,
01020200,
10020010,
00002000700000000000000000000800,
10020000,
0,
10020000,
02,
10020000,
0,
10020010,
02000000,
10020000,
0,
01002000,
0002,
00010020,
0,
0,
12,
0100000000200070,
0,
8,
#END