1
0
mirror of synced 2024-12-20 19:35:58 +01:00
OpenTaiko/Test/Songs/02 OpenTaiko Chapter II/058 - pipie/pipie.tja

2183 lines
23 KiB
Plaintext

TITLE:pipie
SUBTITLE:--goldenyoshi22
BPM:314
WAVE:pipie.ogg
DEMOSTART:67.261
OFFSET:-0.05
PREIMAGE:jacket.png
MAKER:goldenyoshi22 & Komi
COURSE:Oni
LEVEL:11.8
SCOREINIT:340
SCOREDIFF:0
BALLOON:5,3,1,4,1,5,9,2,6,3,1,4,1,5,9,2,6
#START
#SCROLL 0.6
10112010,
20221011,
22112011,
20010020020010020010
#SCROLL 0.8
10
#SCROLL 1
10,
#SCROLL 1.25
30303003,
0333,
30030030,
3333,
#SCROLL 0.9
#BRANCHSTART p,85,92
#SECTION
#N
11112011,
0010100020101111,
11112011,
0010101020101111,
11112011,
0010101020101111,
11112011,
0010101020101111,
#E
11112012,
02112022,
11112011,
02112122,
11112011,
000200100100200100101010,
11212011,
0020101020102222,
#M
11112012,
000200100100200000202020,
11212212,
0020101020102222,
11112012,
000200100100200100202020,
11212012,
000000200000100000100000100010001000200200200200,
#BRANCHEND
#BRANCHSTART p,85,92
#SECTION
#N
#SCROLL 0.95
11112011,
0010101020101111,
11112011,
0010101020101111,
11112011,
0010101020101111,
11112112,
1110101011111111,
#E
#SCROLL 0.95
11112011,
12112122,
11112011,
0020101020102222,
11112011,
1020101020101110,
11112112,
1020111020102222,
#M
#SCROLL 0.95
11112012,
000200100100200100202020,
12112212,
0020101120102222,
11112012,
100200100100200100202020,
1010201020201022,
100000200000100000200200100010001000200200200200,
#BRANCHEND
#BRANCHSTART p,85,92
#SECTION
#N
#SCROLL 1
20222022,
02222040,
20222022,
02222040,
20222022,
02222040,
20222022,
02222140,
#E
#SCROLL 0.9
10111011,
02112020,
10111011,
02111020,
20111012,
01112020,
10221021,
02211020,
#M
#SCROLL 0.9
2000101010001110,
01112011,
2000101010001110,
02112122,
2000101010001110,
0010101020102022,
1000101010001110,
02112122,
#BRANCHEND
#BRANCHSTART p,85,92
#SECTION
#N
11211211,
2010102010101111,
11211211,
2010102010101111,
22122122,
1020102010101111,
22112122,
1020102011111111,
#E
#SCROLL 0.925
11221112,
0020202010001011,
#SCROLL 0.95
11212212,
000200200200100100101010,
#SCROLL 0.975
22121121,
000100200200100100202020,
#SCROLL 1
21112112,
12127008,
#M
#SCROLL 0.925
1110202010201022,
100000200000100000200000100010001000200000100100,
#SCROLL 0.95
2020102011202020,
1010202011112011,
#SCROLL 0.975
21121122,
1010221120101111,
#SCROLL 1
2010201120102011,
200000200000100100200200100010001000200020002000,
#BRANCHEND
#BRANCHSTART p,85,92
#SECTION
#N
#SCROLL 0.75
100000000000100010001000200000000000100100100100,
200111200111,
100000101010200100101010,
200000101010200100101010,
200000000000100010001000200000000000100100100100,
200000000000100010001000200000000000100100100100,
200000000000100010001000200000000000100100100100,
200000000000100010001000200000100000100100100100,
#SCROLL 1
100000100000100010001000200000100000100100100100,
200100101010200100101010,
100100101010200100101010,
200100101010200100101010,
200000100000100010001000200000100000100100100100,
200000100000100010001000200000100000100100100100,
2010111020101110,
200000100000100010001000200000100000100100100100,
#E
#SCROLL 0.8
100111100200,
200000101010200000200200,
100000202020200200100100,
200000100100200200101010,
100111200100,
200222200111,
20221022,
200200101010200200101010,
100000101010100100200000,
200200101010200000200200,
100100202020200200100100,
200000100100200200101010,
100100101010200000100100,
200100202020200000101010,
21221121,
200200101010200100202020,
#M
#SCROLL 0.8
100111200100,
200222200100,
100100101010200000100100,
100200100100200100202020,
100111200100,
200000201010200000100100,
200200100200100000101010,
200100202020100100200100,
100111200100,
200000202020200000100100,
200100101010200000100100,
100200100100200100202020,
100111200100,
200000201010200000100100,
200200100200100200101010,
200100202020100100200100,
#BRANCHEND
#BRANCHSTART p,85,92
#SECTION
#N
20120220,
2000202020002011,
20120220,
2000201120002011,
20120220,
22112211,
20120221,
200010001000100000100000200010001000100000100100,
#E
#SCROLL 0.95
30220210,
40112010,
30120210,
30111020,
40222110,
31223122,
40122111,
400200100100400200101010,
#M
#SCROLL 0.95
30112121,
4000101120102020,
3010202010112010,
300100201010200100202020,
40122120,
31223222,
40121122,
300000100000200010001000400000200000200000200200,
#BRANCHEND
#BRANCHSTART p,85,92
#SECTION
#N
20121220,
2000202020002011,
20121221,
2000201120102011,
20121220,
2020111020201110,
20121221,
100010001000200020002000200020002000100100100100,
#E
#SCROLL 1
30122120,
30221020,
40120211,
400000100100200200101010,
30122110,
42114211,
40112211,
4010401040201111,
#M
3000102010112010,
400000000000100000100100200000200000100010001000,
4000102010221020,
300000100000200010001000200000100000200200200000,
30221210,
31223212,
40111211,
300010001000400000100000400000100100200200100000,
#BRANCHEND
#BRANCHSTART p,85,92
#SECTION
#N
#SCROLL 0.75
10112011,
1000101120001010,
1011101020004000,
4000111040001010,
10112011,
1000101120001010,
1011101020004000,
4000111040001010,
#E
#SCROLL 0.8
10112020,
10222020,
10111040,
4141,
20112020,
11221020,
10212230,
30223020,
#M
#SCROLL 0.8
20222020,
10221020,
10111040,
4040,
1000202210002000,
1000101020112020,
10112230,
30223201,
#BRANCHEND
#BRANCHSTART p,85,92
#SECTION
#N
10112011,
1000101120001010,
1011101020004000,
4000111040001010,
2020101022201010,
0010222220102220,
100000100000200020002000200020002000200000200200,
200000200200200020002000200000200200200200200200,
#E
22112020,
10112020,
12201041,
42104011,
22101022,
1121,
40111140,
42314141,
#M
1000201022102020,
100000100000200010001000200000100000200000200200,
100100200100201010400100,
40223011,
20111020,
100100101010200100202020,
400200101010202020100100,
200010001000200000100100200000100000200020002000,
#BRANCHEND
#BRANCHSTART p,85,92
#GOGOSTART
#SECTION
#N
#SCROLL 1
1010202011102010,
1010201022102020,
1010222010102220,
1010201022201020,
#E
#SCROLL 1
1010101011111010,
1110101011111010,
1110101011111010,
1111101011111010,
#M
#SCROLL 1
1110202011102010,
1011201020112010,
200010001000200200200000100000100100200020002000,
1110201022201022,
#BRANCHEND
#BRANCHSTART p,85,92
#SECTION
#N
1020202011102020,
1010201020201111,
1020222010102220,
1010201022202010,
#E
1110101011111010,
1110111011111010,
1110101011101110,
1111111011111110,
#M
1120102011201010,
100100100000200000100000200200100000200020002000,
1110201020102222,
1110201022101022,
#BRANCHEND
#BRANCHSTART p,85,92
#SECTION
#N
2010202010102210,
1010221020102220,
1010222010102220,
1010201022201020,
#E
1010101011111010,
1110101011111010,
1110101011111010,
1111101011111010,
#M
1110201011201020,
100000200200100000200000100000100100200010001000,
2010222210102010,
2220101022221020,
#BRANCHEND
#BRANCHSTART p,85,92
#SECTION
#N
2020111020102020,
1010221120201110,
200000100000200200200000100010001000200000200000,
1111201011112222,
#E
1110101011111010,
1110111011111010,
1110101011101110,
1111111011111110,
#M
1110201120102022,
1010201011112010,
100010001000200000200000100100100100200020002000,
1122201011112222,
#BRANCHEND
#BRANCHSTART p,85,92
#GOGOEND
#SECTION
#N
#SCROLL 1
30303003,
0333,
30030030,
3333,
#SCROLL 0.75
21212011,
2011100020001000,
21212012,
1011101020001000,
#E
#SCROLL 1.25
30303003,
0333,
30030030,
3333,
#SCROLL 0.77
11212012,
02102010,
11212012,
12102010,
#M
#SCROLL 1.5
30303003,
0333,
30030030,
3333,
#SCROLL 0.9
11112012,
02112010,
1010111120101020,
02112210,
#BRANCHEND
#BRANCHSTART p,85,92
#SECTION
#N
#SCROLL 1.00
3333,
3333,
3033,
3333,
#SCROLL 0.75
1020102010001021,
11112111,
2010102010001110,
2000101110111010,
#E
#SCROLL 1.25
3333,
3333,
3033,
3333,
#SCROLL 0.77
12122012,
22112011,
11212012,
12112022,
#M
#SCROLL 1.5
3333,
3333,
3033,
3333,
#SCROLL 0.9
1010201120001010,
1020101120102020,
1010101120001010,
100000200000100000100100200000100000200020002000,
#BRANCHEND
#BRANCHSTART p,85,92
#SECTION
#N
#SCROLL 1.15
3333,
3033,
3033,
3330,
#SCROLL 0.75
21212011,
2011100020001000,
21212012,
1011101020001000,
#E
#SCROLL 1.3
3333,
3033,
3033,
3330,
#SCROLL 0.85
11112012,
12112022,
11212011,
12112122,
#M
#SCROLL 1.6
3333,
3033,
3033,
3330,
#SCROLL 1
11112212,
02112211,
2010111120101020,
000000200000100000100000200000200200100010001000,
#BRANCHEND
#BRANCHSTART p,85,92
#SECTION
#N
#SCROLL 1.15
3333,
3333,
00303033,
33303030,
#SCROLL 0.75
1020102010001021,
11112111,
2010102010001110,
2000101110111010,
#SCROLL 0.50
7008,
7008,
7008,
7008,
7008,
7008,
7008,
7008,
#E
#SCROLL 1.3
3333,
3333,
00303033,
33303030,
#SCROLL 0.85
12122011,
22122011,
21122012,
12112122,
#SCROLL 0.6
7008,
#SCROLL 0.3
7008,
#SCROLL 1.05
7008,
#SCROLL 0.4
7008,
#SCROLL 1.159
7008,
#SCROLL 2
7008,
#SCROLL 1.3
7008,
#SCROLL 0.2
7008,
#M
#SCROLL 1.6
3333,
3333,
00303033,
33303030,
#SCROLL 1
1010201120001010,
1020101120102020,
100010001000200000100100200000000000100000100000,
100000200200100000100000200000100100200020002000,
#SCROLL 0.7
10111011,
01111010,
10111011,
01111010,
10112011,
01112010,
11112011,
000200100100200100202020,
#BRANCHEND
#BRANCHSTART p,85,92
#SECTION
#N
10111011,
0011101010001000,
10111011,
1010101110101111,
10111011,
000000100000100010001000100100100100100000100000,
1010111010101111,
1011101011112222,
#E
#SCROLL 0.75
10111011,
0011101010001000,
10111011,
1010101110102222,
10111011,
000000100000100010001000100100100000100000100000,
1010111010102220,
100100100000100000100000100010001000200020002000,
#M
#SCROLL 0.75
11112011,
0011101020001000,
11112011,
1020101120102222,
11112011,
000000200000100000100100200020002000100000100000,
100100100000200000200000100000100000100010001000,
100100200000100000200200100010001000200200200200,
#BRANCHEND
#BRANCHSTART p,85,92
#SECTION
#N
#SCROLL 0.75
11221222,
1020202010112011,
1010202010201110,
2010201110101111,
11221222,
1020202010112011,
1010202010201110,
2010201110101111,
#E
#SCROLL 0.9
11221222,
10221120,
11212122,
1010200020201110,
11221211,
20221120,
11221121,
2000201020201111,
#M
#SCROLL 1
2020102011101010,
2010112010101111,
200000100000100100100000200000200000100010001000,
2020221020202222,
1010221020201011,
2010101022201010,
2010111120102011,
2010202010112010,
#BRANCHEND
#BRANCHSTART p,85,92
#SECTION
#N
11221222,
1020202010112011,
1010202010201110,
2010201110101111,
11221222,
1020202010112011,
1010202010201110,
2010201110101111,
#E
#SCROLL 0.95
11221222,
10221120,
11212122,
1010201020201111,
11221211,
200100200200101010200000,
11221121,
2010202020101111,
#M
2010112010101010,
2010112010102211,
200000100100100000100000200000200000100010001000,
2020221020102222,
200000100000100000200000100010001000200000100100,
2010102011112010,
2010111120102011,
200000100000200020002000100000100100200200200200,
#BRANCHEND
#BRANCHSTART p,85,92
#SECTION
#N
#GOGOSTART
#SCROLL 1
1010201022201010,
1010202010202220,
11221121,
2010101020101110,
#E
#GOGOSTART
#SCROLL 1
1110201110201111,
1010101110201111,
1010102020101111,
1020111110201111,
#M
#GOGOSTART
#SCROLL 1
1110201011221010,
2211201022201020,
1222102011221020,
100100100100200000100000200020002000100100100100,
#BRANCHEND
#BRANCHSTART p,85,92
#SECTION
#N
2010202010102210,
2020111020102010,
1020111120102020,
1110201022102020,
#E
1010102020101111,
1020111110201111,
1010102020101111,
1020111111112222,
#M
2011101020101111,
200000100000200000100100200010001000200000200000,
1011201010201122,
1011201022112020,
#BRANCHEND
#BRANCHSTART p,85,92
#SECTION
#N
1010201020201111,
1010202011202020,
1010202010201110,
2010111120101110,
#E
1110201110201111,
1010101110201111,
1010102020101111,
1020101011111111,
#M
1110201011112010,
200200100100200000200000100000100100200020002000,
1222102011221020,
100100200200200000200000100010001000200200100100,
#BRANCHEND
#BRANCHSTART p,85,92
#SECTION
#N
1010202010201120,
2020111020102020,
1010201020102220,
1110202010102000,
#E
1010111020101110,
1020101110201111,
1110201110201111,
1020111011112222,
#M
2010111020101111,
200000100000200000100100200010001000200000100000,
1010201022201022,
100010001000200010001000200200100100200200200200,
#BRANCHEND
#BRANCHSTART p,85,92
#SECTION
#N
1010201020201110,
1010202010221020,
1010202010221020,
100000100000200020002000200000100000100100100100,
#E
1110201110201111,
1010101110201111,
1010102020101111,
1020101011111111,
#M
1110202011221010,
2211201022102011,
2222102011221020,
100100100100200000100000200010001000200200100100,
#BRANCHEND
#BRANCHSTART p,85,92
#SECTION
#N
1010202010102210,
2020101020102222,
1020101020102220,
1110201020112020,
#E
1010102020101111,
1020101010201111,
1010102020101111,
1020101011112222,
#M
2010111020102211,
2010201120102211,
2011201020112210,
200000100100200010001000200200100100200020002000,
#BRANCHEND
#BRANCHSTART p,85,92
#SECTION
#N
1010201020201110,
1010202010221020,
1010202010221020,
100000100000200020002000100000100000100100100100,
#E
1010201110201111,
1010101110201111,
1010102020101111,
1020101011111111,
#M
1110201111201010,
200200100100200000200000100000100100200010001000,
2222102012221020,
100100200200100000200000100010001000200100100100,
#BRANCHEND
#BRANCHSTART p,85,92
#SECTION
#N
1010202010102210,
2020111020102220,
1020112010221020,
100000100100200000100000200200100100200020002000,
#E
1010111020101110,
1020101110201111,
1111111111111111,
1111111111112222,
#M
2011201022102211,
200010001000200000100100200010001000200000100100,
2011101020201111,
2111221122212222,
#BRANCHEND
#BRANCHSTART p,85,92
#GOGOEND
#SECTION
#N
#SCROLL 1
30303003,
0333,
30030030,
3333,
#SCROLL 0.75
21212011,
2011100020001000,
21212012,
1011101020001000,
#E
#SCROLL 1.25
30303003,
0333,
30030030,
3333,
#SCROLL 0.77
11212012,
02102010,
11212012,
12102010,
#M
#SCROLL 1.5
30303003,
0333,
30030030,
3333,
#SCROLL 0.9
11112012,
02112010,
1010111120101020,
02112210,
#BRANCHEND
#BRANCHSTART p,85,92
#SECTION
#N
#SCROLL 1.00
3333,
3333,
3033,
3333,
#SCROLL 0.75
1020102010001021,
11112111,
2010102010001110,
2000101110111010,
#E
#SCROLL 1.25
3333,
3333,
3033,
3333,
#SCROLL 0.77
12122012,
22112011,
11212012,
12112022,
#M
#SCROLL 1.5
3333,
3333,
3033,
3333,
#SCROLL 0.9
1010201120001010,
1020101120102020,
1010101120001010,
100000200000100000100100200000100000200020002000,
#BRANCHEND
#BRANCHSTART p,85,92
#SECTION
#N
#SCROLL 1.15
3333,
3033,
3033,
3330,
#SCROLL 0.75
21212011,
2011100020001000,
21212012,
1011101020001000,
#E
#SCROLL 1.3
3333,
3033,
3033,
3330,
#SCROLL 0.85
11112012,
12112022,
11212011,
12112122,
#M
#SCROLL 1.6
3333,
3033,
3033,
3330,
#SCROLL 1
11112212,
02112211,
2010111120101020,
000000200000100000100000200000200200100010001000,
#BRANCHEND
#BRANCHSTART p,85,92
#SECTION
#N
#SCROLL 1.15
3333,
3333,
00303033,
33303030,
#SCROLL 0.75
1020102010001021,
11112111,
2010102010001110,
2000101110111010,
#E
#SCROLL 1.3
3333,
3333,
00303033,
33303030,
#SCROLL 0.85
12122011,
22122011,
21122012,
12112122,
#M
#SCROLL 1.6
3333,
3333,
00303033,
33303030,
#SCROLL 1
1010201120001010,
1020101120102020,
100010001000200000100100200000000000100000100000,
100000200200100000100000200000100100200020002000,
#BRANCHEND
#BRANCHSTART p,85,92
#SECTION
#N
#SCROLL 1
20120120,
12112111,
20210120,
11212212,
10222210,
20222110,
22221222,
11221112,
#E
#SCROLL 1
11211211,
2010102010101111,
11211211,
2010102010101111,
22122122,
1020201020201111,
22112211,
2020101011111111,
#M
#SCROLL 1
21121121,
12112122,
22122122,
11211212,
11212112,
11212112,
11112222,
11221212,
#BRANCHEND
#BRANCHSTART p,85,92
#SECTION
#N
#GOGOSTART
1010202011112020,
1020111020112010,
#E
#GOGOSTART
2220102220102220,
1022201022201010,
#M
#GOGOSTART
2011102011102011,
100100200000100010001000200000100100200000100000,
#BRANCHEND
#BRANCHSTART p,85,92
#SECTION
#N
2020102011102010,
200200100100200000100000100010001000200000100000,
#E
2220102220102220,
1022201020201022,
#M
2210102022112020,
1011201122112111,
#BRANCHEND
#BRANCHSTART p,85,92
#SECTION
#N
2010102011102010,
100010001000200020002000100000200000100100200000,
#E
1020102210201022,
1020102210201011,
#M
200010001000100000200000100100100100200010001000,
100000100000200010001000200200200200100000200000,
#BRANCHEND
#BRANCHSTART p,85,92
#SECTION
#N
1022102010211020,
1110222011112222,
#E
100010001000100100100100100010001000100100100100,
100010001000100100100100100010001000100100101010,
#M
100100100100200020002000100100200200100020002000,
2211221121212222,
#BRANCHEND
#BRANCHSTART p,85,92
#GOGOEND
#BARLINEOFF
#SECTION
#N
#SCROLL 1.31415
3030300
#SCROLL 1.41592
3,
0
#SCROLL 1.59265
333,
300
#SCROLL 1.65358
300
#SCROLL 1.79323
30,
333
#SCROLL 2
4,
,
,
#E
#BARLINEOFF
#SCROLL 1.4
3030300
#SCROLL 1.55
3,
0
#SCROLL 1.7
333,
300
#SCROLL 1.85
300
#SCROLL 2
30,
333
#SCROLL 2.5
G,
,
,
#M
#SCROLL 1.5
3030300
#SCROLL 1.75
3,
0
#SCROLL 2
333,
300
#SCROLL 2.33
300
#SCROLL 2.66
30,
333
#SCROLL 3.14159
G,
,
,
#BRANCHEND
#END
COURSE:Hard
LEVEL:9
SCOREINIT:640
SCOREDIFF:0
BALLOON:59
#START
#SCROLL 0.6
10111010,
2020,
10222020,
10002011,
#SCROLL 1
30303003,
0333,
30030030,
3333,
#SCROLL 0.6
10102011,
1121,
1121,
20022020,
10102011,
01102010,
1121,
20011020,
#SCROLL 0.7
20222010,
10112010,
20221020,
10011010,
20112010,
20222010,
20221020,
10011020,
#SCROLL 0.65
10111010,
2222,
10111011,
0222,
10111010,
2222,
10111020,
1222,
#SCROLL 0.8
10222010,
20221010,
20111020,
10112010,
20111020,
11102020,
10222020,
10221000,
#SCROLL 0.7
10111010,
2121,
20222020,
1121,
20112020,
10221010,
20222010,
20111020,
10112010,
10222010,
20222010,
1212,
10112010,
20221022,
1212,
10111020,
#SCROLL 0.85
30010110,
40112010,
30020110,
30221020,
40020110,
4131,
40220110,
3142,
#SCROLL 0.9
30010110,
40111020,
40010220,
30112010,
40110220,
3232,
20120110,
3443,
#SCROLL 0.7
20222020,
1222,
1124,
4040,
20222020,
1221,
11102030,
3030,
#SCROLL 0.8
10222020,
1221,
10221040,
4040,
20111020,
10112010,
20111020,
20111010,
#GOGOSTART
#SCROLL 0.9
10201120,
10201120,
10221020,
22202220,
10201220,
10201220,
10222020,
11101110,
10221020,
10221020,
11201020,
22201110,
20111020,
11101020,
20111120,
11102222,
#GOGOEND
#SCROLL 1
30303003,
0333,
30030030,
3333,
#SCROLL 0.7
11102010,
2011,
22201020,
1120,
#SCROLL 1
3333,
3333,
3033,
3333,
#SCROLL 0.75
10221020,
1021,
20111010,
2120,
#SCROLL 1
3333,
3033,
3033,
3330,
#SCROLL 0.8
20112010,
1221,
10221020,
1222,
#SCROLL 1
3333,
3333,
00303033,
33303030,
#SCROLL 0.8
10221020,
1122,
10111020,
1222,
#BARLINEOFF
#SCROLL 0.314159
7,
#BARLINEON
#SCROLL 0.5
0,
#SCROLL 0.55
0,
#SCROLL 0.6
0,
#SCROLL 0.65
0,
#SCROLL 0.7
0,
,
0080,
10111010,
2120,
10222020,
1222,
10221010,
1120,
10111020,
10112010,
#SCROLL 0.8
10221010,
20222000,
10111020,
10201120,
10222020,
1212,
10221010,
20222220,
10221010,
20112000,
10221010,
20112020,
10222010,
11102010,
20112020,
10221010,
#GOGOSTART
#SCROLL 0.9
11111010,
22021010,
22222010,
22011020,
11102020,
11112020,
10221010,
20222220,
11111010,
22021010,
22222010,
22011020,
11102010,
11202010,
10221020,
11202220,
11111020,
11021020,
11112010,
22011020,
11102020,
11112020,
10221010,
22222020,
11111010,
22021010,
22221020,
11012020,
11102010,
22112010,
20221010,
11112220,
#GOGOEND
#SCROLL 1
30303003,
0333,
30030030,
3333,
#SCROLL 0.7
11102010,
2011,
22201020,
1120,
#SCROLL 1
3333,
3333,
3033,
3333,
#SCROLL 0.7
10221020,
1021,
20111010,
2120,
#SCROLL 1
3333,
3033,
3033,
3330,
#SCROLL 0.8
20112010,
1221,
10221020,
1222,
#SCROLL 1
3333,
3333,
00303033,
33303030,
#SCROLL 0.8
10221020,
1122,
10111020,
1222,
#SCROLL 0.9
10110110,
10111020,
20220220,
22202020,
10111010,
11011010,
22201020,
10102220,
#GOGOSTART
#SCROLL 1
20120120,
11112020,
10210210,
22221010,
10221020,
11221020,
11201120,
11112222,
#GOGOEND
#BARLINEOFF
#SCROLL 1.05
3030300
#SCROLL 1.1
3,
0
#SCROLL 1.15
333,
300
#SCROLL 1.2
300
#SCROLL 1.25
30,
333
#SCROLL 1.31415
4,
,
,
#END
COURSE:Normal
LEVEL:7
SCOREINIT:1050
SCOREDIFF:0
BALLOON:31
#START
#SCROLL 0.5
1111,
2020,
1122,
1010,
#SCROLL 0.8
30303003,
0333,
30030030,
3333,
#SCROLL 0.6
1120,
1020,
1122,
10010010,
1120,
1022,
1022,
10020020,
1120,
1020,
1222,
10010010,
1120,
1122,
1022,
10020020,
#SCROLL 0.7
3010,
2222,
1020,
1122,
1020,
1222,
1010,
2122,
1122,
2010,
2211,
1020,
1121,
2010,
2212,
1020,
#SCROLL 0.6
1011,
1020,
1022,
1120,
1022,
1020,
1011,
2220,
1022,
1121,
0121,
1122,
1021,
0120,
1121,
1122,
#SCROLL 0.75
3011,
4010,
30020020,
3122,
3020,
3131,
4010,
3142,
3022,
3020,
30020020,
3120,
40010010,
4141,
4020,
3141,
#SCROLL 0.66
2222,
1020,
1114,
4040,
1122,
1020,
1123,
3030,
2211,
2011,
2024,
4030,
2011,
2011,
4024,
4433,
#GOGOSTART
#SCROLL 0.8
2222,
1020,
1122,
3040,
1121,
2022,
1121,
3030,
1222,
1020,
1211,
4030,
2211,
2010,
2211,
4433,
#GOGOEND
#SCROLL 0.9
10002002,
0020,
10002002,
0010,
#SCROLL 0.7
1022,
1020,
1122,
1020,
#SCROLL 0.9
10001001,
0022,
10002002,
0011,
#SCROLL 0.7
1022,
1120,
1122,
1020,
#SCROLL 0.9
10002002,
0220,
10002002,
0110,
#SCROLL 0.75
1022,
1020,
1122,
1020,
#SCROLL 0.9
10001001,
0220,
10102002,
0221,
#SCROLL 0.75
1022,
1120,
1122,
1020,
#SCROLL 0.5
7,
#SCROLL 0.4
0,
#SCROLL 0.3
0,
#SCROLL 0.25
0,
#SCROLL 0.266
0,
#SCROLL 0.355
0,
#SCROLL 0.475
0,
#SCROLL 0.6
0080,
1011,
1110,
2022,
0221,
1011,
10010020,
2022,
2020,
#SCROLL 0.75
1022,
1020,
1122,
1020,
1120,
1022,
1122,
1020,
1011,
2020,
1022,
1010,
2011,
2022,
1111,
2020,
#GOGOSTART
#SCROLL 0.85
1122,
1020,
1222,
1020,
1111,
2010,
2211,
2020,
1122,
1010,
2211,
2010,
2111,
2011,
2011,
2020,
1122,
1020,
1222,
1020,
1211,
2010,
2122,
1020,
1121,
2011,
2212,
2011,
2111,
2011,
2211,
2122,
#GOGOEND
#SCROLL 0.9
30302002,
0020,
30302002,
0333,
#SCROLL 0.7
1022,
1020,
1122,
1020,
#SCROLL 0.9
30303001,
0332,
30003002,
0333,
#SCROLL 0.7
1022,
1120,
1122,
1020,
#SCROLL 0.9
30302002,
0220,
30002002,
0330,
#SCROLL 0.75
1022,
1020,
1122,
1020,
#SCROLL 0.9
30303001,
0220,
10102002,
0333,
1022,
1120,
1122,
1020,
#SCROLL 0.85
20020020,
02001010,
10020020,
02002020,
10020010,
01002020,
1122,
1022,
#GOGOSTART
#SCROLL 0.925
2211,
2011,
2111,
2011,
2211,
2011,
2211,
2122,
#GOGOEND
#BARLINEOFF
#SCROLL 1
30303003,
0333,
30030030,
3334,
,
,
#END
COURSE:Easy
LEVEL:5
SCOREINIT:1660
SCOREDIFF:0
BALLOON:1,1,1,1,1,1,1,1,1,1,1,1,1,1,3,1,4,1,4,1,5,1,15,3,1,4,1,4,1,5,1,1,1,1,1,1,1,1,1,1,1,1,1,1,1
#START
#SCROLL 0.5
1020,
2020,
1010,
2020,
#SCROLL 0.8
78787087,
08787878,
70870878,
78787878,
#SCROLL 0.5
1010,
2020,
1,
2020,
1010,
2010,
1,
2020,
1020,
2020,
1,
2020,
1010,
2020,
1,
2020,
#SCROLL 0.6
3002,
0020,
1022,
0020,
1001,
0020,
1011,
0200,
3020,
1010,
2010,
2,
2010,
1010,
2020,
1010,
#SCROLL 0.5
1020,
0020,
1020,
2,
1020,
0020,
1010,
2020,
1020,
0020,
1020,
2020,
1020,
0020,
1020,
1020,
#SCROLL 0.65
3010,
4020,
3,
3010,
4,
4030,
4,
3040,
3010,
4020,
3,
4020,
3,
4030,
4,
3040,
#SCROLL 0.55
3010,
1020,
1030,
4,
1020,
2020,
1040,
4,
1010,
1010,
2040,
4030,
2010,
1,
2020,
4030,
#GOGOSTART
#SCROLL 0.7
2022,
2020,
1,
4040,
1011,
1020,
1,
3030,
2022,
2020,
1010,
4030,
2010,
1010,
2010,
4030,
#GOGOEND
#SCROLL 0.8
7,
0080,
7,
0080,
#SCROLL 0.6
1010,
2020,
1020,
2,
#SCROLL 0.8
7,
0080,
7,
0080,
#SCROLL 0.6
1010,
2010,
2020,
1020,
#SCROLL 0.8
7,
0080,
7,
0080,
#SCROLL 0.66
1010,
2010,
2020,
2,
#SCROLL 0.8
7,
0080,
7,
0080,
#SCROLL 0.66
1010,
2020,
1020,
2,
#SCROLL 0.5
7,
,
,
,
,
,
,
0080,
1010,
1,
2020,
2,
1010,
1110,
2,
2020,
#SCROLL 0.6
1010,
2020,
1020,
2,
1020,
2020,
1010,
2,
1020,
1020,
1010,
2,
1020,
2010,
1010,
2,
#GOGOSTART
#SCROLL 0.7
1020,
2020,
1010,
2,
1011,
1010,
2,
1010,
2010,
1010,
2020,
1,
2011,
1010,
2020,
2,
1020,
2020,
1010,
2010,
2022,
2020,
1010,
2,
1011,
1010,
2010,
2020,
1022,
2020,
1010,
2020,
#GOGOEND
#SCROLL 0.8
7,
0080,
7,
0080,
#SCROLL 0.6
1010,
2020,
1020,
2,
#SCROLL 0.8
7,
0080,
7,
0080,
#SCROLL 0.6
1010,
2010,
2020,
1020,
#SCROLL 0.8
7,
0080,
7,
0080,
#SCROLL 0.66
1010,
2010,
2020,
2,
#SCROLL 0.8
7,
0080,
7,
0080,
#SCROLL 0.66
1010,
2020,
1020,
2,
#SCROLL 0.6
2020,
2,
1010,
2,
1020,
2020,
1010,
2,
#GOGOSTART
#SCROLL 0.75
2011,
1010,
2010,
1110,
1020,
2220,
1020,
2222,
#GOGOEND
#SCROLL 1
78787087,
08787878,
70870878,
78787878,
,
,
#END