1
0
mirror of synced 2024-12-20 19:35:58 +01:00
OpenTaiko/Test/Songs/S1 Dan-i Dojo/21. Kurouto/Kurouto.tja
2023-05-26 19:26:48 +09:00

716 lines
11 KiB
Plaintext

// ===== Made using 0AuBSQ's Dan Chart Maker =====
TITLE:玄人
BPM:170
WAVE:Stereotype.ogg
DEMOSTART:91.76
SCOREMODE:2
COURSE:Dan
LEVEL:10
BPM:170
BALLOON:3,3,3,3,0
EXAM1:g,100,100,m
EXAM2:jg,91,45,l
EXAM3:jb,9,6,l
DANTICK:5
DANTICKCOLOR:#f900ff
#START
#NEXTSONG Stereotype,Taichenko,,1.ogg,350,80,10,3
#BPMCHANGE 170
#MEASURE 4/4
#SCROLL 1.0
#BARLINEON
EXAM4:r,23,31,m
2,
2,
2,
2,
1,
1,
1,
1,
1111,
10101011,
1111,
1111,
1011201210112021,
1011201210112020,
1111221122221121,
1122112212217080,
#GOGOSTART
1010201202101021,
1020202110102121,
1010201202102011,
1010201110102020,
1010202101201021,
1020202110102121,
1010201202102010,
102210221020
#GOGOEND
7080,
#GOGOSTART
1011202101212012,
1022101120102121,
1011201202112010,
1110201110102020,
1011202101212021,
1022102120112120,
1010201202212010,
10221022
#GOGOEND
10200020,
#GOGOSTART
#SCROLL 1.5
6000
#GOGOEND
80
#SCROLL 1
21,
1021201120102010,
1221201210210121,
1021021021120020,
#GOGOSTART
#SCROLL 1.5
6000
#GOGOEND
80
#SCROLL 1
21,
1021201020020020,
3001201120102011,
1021201120102202,
#GOGOSTART
1010201110102012,
1021202102112020,
1221211212212111,
1021021021120020,
1010201110102012,
1021201120021020,
#GOGOEND
1
#SCROLL 2
#GOGOSTART
4
#SCROLL 1
#GOGOEND
1
#GOGOSTART
#SCROLL 2
4,
#GOGOEND
#SCROLL 1
3
#GOGOSTART
4
#GOGOEND
3
#GOGOSTART
4
#GOGOEND
3
#GOGOSTART
4
#GOGOEND
3
#GOGOSTART
4,
#GOGOEND
#SCROLL 0.5
1111,
20101011,
2111,
20101110,
#SCROLL 0.75
20102011,
20102110,
20102011,
20102011,
#SCROLL 1
1020102210201021,
1020102210201121,
1020102110201022,
1020102110201020,
1222122112221221,
1222122212221221,
101010200200100200100200101010200200100200100200,
101010200200101010200200100200100200101010202020,
000000
#SCROLL 1.4
2
#SCROLL 1.2
1,
#SCROLL 1
#GOGOSTART
3002102210021022,
1001201120102211,
1001201110102011,
1010201210102010,
#GOGOEND
7080
#GOGOSTART
302210221020,
1011201020112010,
2001201022102010,
10221022102211
#GOGOEND
20,
#GOGOSTART
300000000200100000200200100000000200100000202020,
1001201120102211,
2001201112102012,
1010201212102010,
#GOGOEND
700000800000
#GOGOSTART
300000200200100000202020100000200000,
1011201020112211,
2001201022102010,
10221022102211
#GOGOEND
20,
#GOGOSTART
300000000200100000200200100000202020100100100100,
#GOGOEND
1010201020102011,
#GOGOSTART
100000000100200000101010100000000100200200101010,
#GOGOEND
1020101020101111,
#GOGOSTART
100000000100200000100200202020100100200000100200,
100000100000200200101010200000100000200000
#GOGOEND
100200,
#GOGOSTART
100000200200100000101010200100100100200000200200,
100000202020100100200200100100200100200200
#GOGOEND
200000,
#GOGOSTART
300000200200100000200000100000202020100000100100,
#GOGOEND
11
#SCROLL 1.25
#GOGOSTART
33,
#GOGOSTART
4
#GOGOEND
30
#GOGOSTART
4
#GOGOEND
30
#GOGOSTART
4
#GOGOEND
3,
#GOGOSTART
200000100100200000200200100100202020200200101010,
1001201210112011,
202020100000200000100100202020100100200000000000,
#GOGOEND
1020102110201020,
#GOGOSTART
300000300000300000300000300000202020100100202020,
#GOGOEND
1,
#SCROLL 1
2,
#SCROLL 0.95
2,
#SCROLL 0.9
2,
#SCROLL 0.85
2,
#SCROLL 0.8
2
#SCROLL 0.75
2,
#SCROLL 0.7
2,
#SCROLL 0.65
20
#SCROLL 0.6
2
#SCROLL 0.5
2,
,
#NEXTSONG Breaking Point,Yonokid,,2.ogg,350,80,10,4
#BPMCHANGE 180
#MEASURE 4/4
#SCROLL 1.0
#BARLINEON
EXAM4:r,14,19,m
#SCROLL 2
2
#SCROLL 1.9
2
#SCROLL 1.8
2
#SCROLL 1.7
2
#SCROLL 1.6
2
#SCROLL 1.55
2
#SCROLL 1.5
2
#SCROLL 1.45
2
#SCROLL 1.4
1
#SCROLL 1.35
2
#SCROLL 1.3
2
#SCROLL 1.25
2
#SCROLL 1.2
2
#SCROLL 1.15
2
#SCROLL 1.1
2
#SCROLL 1.05
2,
#SCROLL 1
12,
3003003020302211,
2000211220002122,
10212300,
1000111120120120,
3021203020102100,
1000001120001112,
2211221122112211,
1002112110021122,
1002112110021122,
1002112110021122,
1002112110021221,
1022201022201020,
1022201022201020,
1222221222221222,
1010100020020020,
#SCROLL 0.8
1010101120101011,
1011101120101211,
1010101120101011,
2221022210012212,
1010101120101011,
1110101120111011,
1001112010021121,
121212111111,
#SCROLL 0.9
1011201110112012,
1011211210112211,
1011201110112012,
1011201111222121,
1010201110102012,
1010201112212212,
102010200100100200100100200200100200100200200100,
100000201010200000200100200000200100200200100200,
#GOGOSTART
#SCROLL 1
2011201120112112,
2011201220122011,
2011201220112012,
2011201121212121,
2011201120112101,
2111201120112110,
2011211120112112,
2011211120212021,
2011201121122112,
2011211120112011,
2110211021102110,
2011201121212121,
2011201120112121,
2011201121121120,
2011201121111212,
100200200100200100200100201020102010200200100200,
#GOGOEND
1,
#SCROLL 0.75
,
22,
20020020,
2000000020020020,
20020020,
2000000000001112,
2221221121112111,
1,
0000000000001111,
2000111220001122,
20120120,
2000111120120120,
20020020,
2,
5008,
#SCROLL 3
3,
3003003000300300,
3,
30000300,
3,
3003003000300300,
300000000000
#SCROLL 1
1112,
2221222122112222,
12121212,
1021102010201120,
12121212,
1021102010201120,
1122112211221122,
1122112211221122,
111111111111111111111111,
111111111111111111111111,
211411411411,
#GOGOSTART
#SCROLL 1.2
1021102010211212,
1222122211221212,
1021202010212020,
1120112012222111,
1020112020121120,
1222211121222122,
1020112011201122,
2211221111221122,
1021102010211212,
1222122211221212,
1021202010212020,
1120112012222110,
1221221222122122,
1221221222122122,
1021102011201112,
2211221122211122,
#GOGOEND
1000000000000
#SCROLL 1
222,
#BARLINEOFF
1,
,
#NEXTSONG mischief madness,Makotora,,3.ogg,350,80,10,3
#BPMCHANGE 180
#MEASURE 4/4
#SCROLL 1.0
#BARLINEON
#DELAY 0.086
EXAM4:r,56,67,m
#BARLINEOFF
#SCROLL 0.75
1010201020020020,
0010201020020020,
1010201020020020,
0010201020020020,
1010201020020020,
0010201020020020,
1010201020020020,
01212020,
2001201020120120,
2011201020122021,
2001201020120120,
2012201020112022,
2001201020120120,
2011201020122021,
2001201020120120,
200000100200200000100000200200000200200000202020,
#BARLINEON
#SCROLL 1
1011201022102011,
1011201022102210,
1011201022102011,
1011201022102210,
1212112212121122,
100200100200101010200200100200100200101010200200,
100100200200100100200200101010200200101010200200,
#SCROLL 2
58585840,
#GOGOSTART
#SCROLL 1
1022102210221120,
1022102210221210,
101000200000101000200200101000200000101000200200,
101000200000101000200200101000000100101000101000,
1022102210221120,
101000200000101000200200101000200000101000101000,
1022102210221120,
#SCROLL 2
43434340,
#SCROLL 1
1011201110112011,
100000200200100100200000100000200200101000101000,
1011201110112011,
100000200200100100200000100000000100101000101000,
1011201210221012,
1011201210221012,
100100200200100100200200101010200200101010200200,
#SCROLL 2
58585840,
#GOGOEND
#SCROLL 0.75
1010201120201022,
1020201220101021,
12102112,
1000101120221020,
1010212010221020,
1000202012102120,
5008,
11201121,
2010201120102021,
2010201220102021,
21202121,
2000201120212022,
2010212020221020,
1000202012102120,
5008,
100000100000200000000000200200000200200000202020,
#SCROLL 1
1022102012012012,
1022102012012210,
2011201021021021,
2011201021021120,
1120102210210120,
2210201120122210,
1120102210210120,
2210201122211212,
1011201022102011,
1011201022102210,
1011201022102011,
1011201022102210,
1212112212121122,
100200100200101010200200100200100200101010200200,
100100200200100100200200101010200200101010200200,
#SCROLL 2
58585840,
#GOGOSTART
#SCROLL 1
100000202020100000200200100000202020100100200000,
100000202020100000200200100000100100100000100100,
100000202020100000200200100000202020100000200200,
100000202020100000200200100200100200100100100100,
100000202020100000200200100000202020100000200200,
100000202020100000200200100100000100100000100200,
1022102012112210,
#SCROLL 2
43434340,
#SCROLL 1
100000101010200000100100100000101010200000100100,
100000202020100100200000100000100100200000100100,
100000101010200000100100100000101010200000100100,
100000202020100100200000100200100200100100100100,
100000101010200000100100100000101010200000100100,
100000202020100100200000100100000100200000100200,
1022102012112210,
#SCROLL 2
43434340,
#SCROLL 1
1022122012121111,
100000200200100200200000100200100200100100202020,
100000200200100200200000100100202020100100202020,
100000200200100200200000101010101010202020202020,
1012101210121111,
100000100200100000100200100000100200100100202020,
100000100200100000100200100100202020100100202020,
1120112022102210,
#GOGOEND
#SCROLL 4
4,
,
#NEXTSONG Lost Emotion.,DashyDesu,,4.ogg,350,80,10,3,true
#BPMCHANGE 188
#MEASURE 4/4
#SCROLL 1.0
#BARLINEON
EXAM4:r,0,0,m
#BPMCHANGE 188
0,
0,
1001201110001022,
1021201012121011,
1001202210201120,
2112012112012120,
1001201110201022,
1021201012121011,
1001202210201120,
2112012112012121,
#SCROLL 0.9
1020120010221200,
#SCROLL 0.89
1020120210211202,
#SCROLL 0.88
1020120010221200,
#SCROLL 0.87
100000200000100200000000400000100000400000101010,
#SCROLL 0.86
1020120010221200,
#SCROLL 0.85
1020120210211202,
#SCROLL 0.84
1020120010221200,
#SCROLL 0.83
1020121040104011,
#SCROLL 0.82
1020120010221200,
#SCROLL 0.81
1020120210211202,
#SCROLL 0.8
100000200000100200000000101010200200100200000000,
#SCROLL 0.79
100000200000100200000000400000100000400000101010,
#SCROLL 1
1020120010221200,
1020120210211202,
1020120010221200,
100000200000100200100000400000100000300000101010,
1010201010112010,
0010202211102040,
0011202211102040,
0011202102102011,
1011202212102010,
0011202212102040,
10002200100010002000101020101000,
202000100100100000200200
#SCROLL 1.3
100100000100200100202020,
#SCROLL 1
#GOGOSTART
1022112212021021,
100200000200100100200200100000202020100000200000,
1120120210221120,
1121202210221210,
1022112012021022,
100100200000100200200200100000102020100000200200,
1120120111201202,
1121212211212110,
1022112212021021,
100200000200100100200200100000202020100000200000,
1120120210221120,
1121202210221210,
1022112012021022,
100100200000100200200200100000102020100000200200,
112012011120120
#SCROLL 1.1
2,
100000100000200000100010001000100000200000000000000000000000000000000000
#SCROLL 1.2
100000200000200010001000,
1010102000000000000000
#SCROLL 1.3
10200000100200101010200000,
000000000000000000022200,
#SCROLL 1
#GOGOEND
1001201110001022,
1021201012121011,
1001202210201120,
2112012112012120,
1021021012221022,
100000200100000100200200100000100200102020100000,
1021021012221022,
100000200100000100200200100000200100201010200000,
#SCROLL 1.15
2011210120112201,
2011210120111110,
2011212120112201,
2011210122221111,
2011210120112201,
2011210120111110,
2011212120112201,
2011210122221111,
#SCROLL 1
0,
00002222,
1010201010112210,
0010202211102020,
1011202211102040,
0011202102102040,
0011202212102011,
200200000000100000100000100000000000200000200000100000100000100000000000200020002000100000100000,
1021111011211212,
2200
#GOGOSTART
400000000000,
#GOGOEND
#SCROLL 0.3
0,
0,
0,
0,
0,
0,
0,
0,
#SCROLL 0.4
1111,
#SCROLL 0.5
1010
#SCROLL 0.6
1010
#SCROLL 0.7
10101111,
#SCROLL 1.05
#GOGOSTART
202020200200100000200200100200000200100000200100,
100200000200100100200200100000202020100000200000,
1120120210221120,
1121202210221210,
1022112012021022,
100100200000100200200200100000102020100000200200,
1120120111201202,
1121212211212110,
1022112212021021,
100200000200100100200200100000202020100000200000,
1120120210221120,
1121202210221210,
1022112012021022,
100100200000100200200200100000102020100000200200,
112012011120120
#SCROLL 1.1
2,
100010001000200000100010001000100000200000000000000000000000000000000000
#SCROLL 1.25
100000200000200010001000,
1010102000000000000000
#SCROLL 1.4
10200000100200101010200000,
000000000000
#SCROLL 1.55
1002002010101010102000000000000000
#SCROLL 1.7
10,
200000100200101010400000000000000000000000000000,
,
#END