1
0
mirror of synced 2024-12-20 19:35:58 +01:00
OpenTaiko/Test/Songs/08 OpenTaiko Original/026 - Lost Emotion/Lost_Emotion..tja
2022-12-04 20:04:18 +09:00

557 lines
7.0 KiB
Plaintext

TITLE:Lost Emotion.
SUBTITLE:--DashyDesu
BPM:188
WAVE:lostem.ogg
OFFSET:-0.0
DEMOSTART:43.20
SCOREMODE:2
PREIMAGE:lostem.png
BGMOVIE:Lost Emotion..mp4
COURSE:Oni
LEVEL:10
BALLOON:0
SCOREINIT:
SCOREDIFF:
#START
#BPMCHANGE 188
0,
0,
1001201110001022,
1021201012121011,
1001202210201120,
2112012112012120,
1001201110201022,
1021201012121011,
1001202210201120,
2112012112012121,
#SCROLL 0.9
1020120010221200,
#SCROLL 0.89
1020120210211202,
#SCROLL 0.88
1020120010221200,
#SCROLL 0.87
100000200000100200000000400000100000400000101010,
#SCROLL 0.86
1020120010221200,
#SCROLL 0.85
1020120210211202,
#SCROLL 0.84
1020120010221200,
#SCROLL 0.83
1020121040104011,
#SCROLL 0.82
1020120010221200,
#SCROLL 0.81
1020120210211202,
#SCROLL 0.8
100000200000100200000000101010200200100200000000,
#SCROLL 0.79
100000200000100200000000400000100000400000101010,
#SCROLL 1
1020120010221200,
1020120210211202,
1020120010221200,
100000200000100200100000400000100000300000101010,
1010201010112010,
0010202211102040,
0011202211102040,
0011202102102011,
1011202212102010,
0011202212102040,
10002200100010002000101020101000,
202000100100100000200200
#SCROLL 1.3
100100000100200100202020,
#SCROLL 1
#GOGOSTART
1022112212021021,
100200000200100100200200100000202020100000200000,
1120120210221120,
1121202210221210,
1022112012021022,
100100200000100200200200100000102020100000200200,
1120120111201202,
1121212211212110,
1022112212021021,
100200000200100100200200100000202020100000200000,
1120120210221120,
1121202210221210,
1022112012021022,
100100200000100200200200100000102020100000200200,
112012011120120
#SCROLL 1.1
2,
100000100000200000100010001000100000200000000000000000000000000000000000
#SCROLL 1.2
100000200000200010001000,
1010102000000000000000
#SCROLL 1.3
10200000100200101010200000,
000000000000000000022200,
#SCROLL 1
#GOGOEND
1001201110001022,
1021201012121011,
1001202210201120,
2112012112012120,
1021021012221022,
100000200100000100200200100000100200102020100000,
1021021012221022,
100000200100000100200200100000200100201010200000,
#SCROLL 1.15
2011210120112201,
2011210120111110,
2011212120112201,
2011210122221111,
2011210120112201,
2011210120111110,
2011212120112201,
2011210122221111,
#SCROLL 1
0,
00002222,
1010201010112210,
0010202211102020,
1011202211102040,
0011202102102040,
0011202212102011,
200200000000100000100000100000000000200000200000100000100000100000000000200020002000100000100000,
1021111011211212,
2200
#GOGOSTART
400000000000,
#GOGOEND
#SCROLL 0.3
0,
0,
0,
0,
0,
0,
0,
0,
#SCROLL 0.4
1111,
#SCROLL 0.5
1010
#SCROLL 0.6
1010
#SCROLL 0.7
10101111,
#SCROLL 1.05
#GOGOSTART
202020200200100000200200100200000200100000200100,
100200000200100100200200100000202020100000200000,
1120120210221120,
1121202210221210,
1022112012021022,
100100200000100200200200100000102020100000200200,
1120120111201202,
1121212211212110,
1022112212021021,
100200000200100100200200100000202020100000200000,
1120120210221120,
1121202210221210,
1022112012021022,
100100200000100200200200100000102020100000200200,
112012011120120
#SCROLL 1.1
2,
100010001000200000100010001000100000200000000000000000000000000000000000
#SCROLL 1.25
100000200000200010001000,
1010102000000000000000
#SCROLL 1.4
10200000100200101010200000,
000000000000
#SCROLL 1.55
1002002010101010102000000000000000
#SCROLL 1.7
10,
200000100200101010400000000000000000000000000000,
#END
COURSE:Hard
LEVEL:8
BALLOON:889,9,14,9
SCOREINIT:
SCOREDIFF:
#START
#BPMCHANGE 188
0,
0,
1001101040004000,
1001101040404000,
1001101040004000,
50000008,
1011101040004000,
1011101040404000,
1011101040004000,
3003003003003030,
1020020010200200,
12111010,
1020020010200200,
1011101040004000,
12221220,
1020101110201000,
12221220,
1011101040004000,
1020220010202200,
1020101110001000,
1020220010202200,
1011101040004000,
1020222010202000,
1000111110001000,
1020222010202000,
1011101040004000,
1011101020222020,
0011101020200040,
0011100020202040,
0011101011101000,
1011101020222020,
0011101020200040,
0011100030004000,
4004
#SCROLL 8
7008,
#SCROLL 1
#GOGOSTART
1001102030003000,
1001102010111010,
14040022,
1020002210002000,
1001102030003000,
1001102010222020,
14040044,
7008,
1001102030003000,
1001102010111010,
14040022,
1020002210002000,
1002102030003000,
1002102010222020,
14040044,
3003003000003003,
0030000030030060,
0008,
#GOGOEND
1001101040004000,
1001101040404000,
1001101040004000,
50000008,
2022202010001010,
2022202220202220,
2022202010001010,
2022222022222220,
1020020010200200,
12111010,
1020020010200200,
1011101040004000,
12221220,
1020101110201000,
12221220,
1011101040004000,
0,
00002224,
0011101020102020,
00221110,
1011101010002020,
0011101020200040,
0011101010101000,
30030030,
03003013,
01
#GOGOSTART
700000,
0800,
#GOGOEND
0,
0,
0,
0,
0,
0,
0,
#SCROLL 0.6
1111,
#SCROLL 0.8
1010101010101110,
#SCROLL 1
#GOGOSTART
2220300030003000,
1001102010111010,
14040022,
1020002210002000,
1001102030003000,
1001102010222020,
14040044,
7008,
1001102030003000,
1001102010111010,
14040022,
1020002210002000,
1002102030003000,
1002102010222020,
14040044,
3003004000003004,
0040000040040030,
0000400300300000,
3003003
#GOGOEND
000000000,
#END
COURSE:Normal
LEVEL:6
BALLOON:889,8,8
SCOREINIT:
SCOREDIFF:
#START
#BPMCHANGE 188
0,
0,
1001001010000000,
1001001010001000,
1001001010000000,
5008,
2002002020000000,
2002002020002000,
2002002020002000,
5008,
11101110,
1110,
11101110,
1144,
11101110,
1122,
11101110,
1144,
11101110,
1110,
11101110,
1144,
11101110,
1122,
11101110,
1144,
10111022,
01101104,
00101004,
00101110,
10222022,
00020202,
01102020,
3000003070000008,
#GOGOSTART
10111010,
10111110,
34040011,
10011000,
10111010,
10111110,
34040044,
7008,
#GOGOEND
10111010,
10111110,
34040011,
10011000,
10111010,
10111110,
34040040,
3003003000003003,
0030000030030060,
0008,
1001001010000000,
1001001010001000,
1001001010000000,
5008,
2002002020000000,
2002002020002000,
2002002020002000,
5008,
20212021,
2220,
20212021,
2244,
20212021,
2220,
20212021,
2244,
0,
00002224,
00101004,
00101110,
10222022,
00020202,
01102020,
30030040,
04003003,
0
#GOGOSTART
400,
#GOGOEND
0,
0,
0,
0,
0,
0,
0,
0,
1111,
11111110,
#GOGOSTART
4311,
10111110,
34040011,
10011000,
10111010,
10111110,
34040044,
7008,
10111010,
10111110,
34040011,
10011000,
20212020,
20202120,
34040040,
3003003000003003,
0030000030030030,
0000300300300000,
3003003
#GOGOEND
000000000,
#END
COURSE:Easy
LEVEL:4
BALLOON:889,8,8,8
SCOREINIT:
SCOREDIFF:
#START
#BPMCHANGE 188
0,
0,
10010000,
10010010,
10010000,
5008,
20020000,
20020020,
20020020,
5008,
1011,
11,
1011,
1044,
1011,
12,
1110,
1144,
11,
1110,
1111,
1044,
11,
1022,
1111,
1044,
10101002,
00101004,
00101004,
0110,
10202002,
00020202,
0022,
3000003070000008,
#GOGOSTART
1111,
1111,
30040010,
11,
1111,
1111,
30040040,
7008,
1111,
1111,
30040010,
11,
1111,
1111,
30040040,
30030030,
03003006,
0008,
#GOGOEND
10010000,
10010010,
10010000,
5008,
20020000,
20020020,
20020020,
5008,
2222,
2220,
2222,
2244,
2222,
2220,
2222,
2244,
0,
00002004,
00101004,
0110,
10202002,
00020202,
0122,
30030040,
04003003,
0
#GOGOSTART
400,
#GOGOEND
0,
0,
0,
0,
0,
0,
0,
0,
1111,
70000008,
#GOGOSTART
4310,
1111,
30040010,
10011000,
1111,
1110,
30040040,
7008,
1111,
1110,
30040010,
10011000,
2222,
2222,
30040040,
30030030,
03003003,
00300300,
3003
#GOGOEND
0000,
#END