1
0
mirror of synced 2025-02-20 20:41:46 +01:00

697 lines
11 KiB
Plaintext

TITLE:I WANT TO BL00000000M
SUBTITLE:--DashyDesu
BPM:218
WAVE:bloom.ogg
OFFSET:-0.008
DEMOSTART:61.465
PREIMAGE:bloom.png
MAKER:Dashy
COURSE:Oni
LEVEL:10.8
BALLOON:9
#START
#BPMCHANGE 218
#SCROLL 0.6
2,
2,
2,
2222,
2,
2,
2,
2,
#SCROLL 0.8
10222022,
10222022,
1000202020002022,
10221022,
10222022,
10222022,
10222011,
#SCROLL 1.2
300200300200300200300222,
#SCROLL 1
1010201110102010,
1010201110112010,
1010201110102020,
1022102210101022,
1011201110102011,
1011221020102220,
1022102210101022,
11313131,
3011201110102011,
1010201010112011,
1010201110112022,
1022102210221220,
1011201110102011,
1011221020102220,
1022102210101022,
11313131,
#LYRIC In this life, I live on my own
10210020,
1000201000112000,
1011201000102000,
100000100100200000100000100000100100200000101010,
1000201000112000,
11210120,
#LYRIC ... At least, that's how it always feels.
1011201110112010,
400000000400000000400000000000100100200000202020,
#LYRIC To me, each day is just dark, and cold
10210020,
1000201000112000,
1011201000102000,
100000100100200000100000100000100100200000101010,
1000201000112000,
#LYRIC Every day is never even "just okay" for me.
11210120,
1011201110112010,
200000100000200000100100200100100100200000202020,
#LYRIC Expectations, Reality Despair...
1000201120102011,
22102010
#LYRIC That's it, that's all, that's all there'll ever be
11212011,
1022101110221010,
2011201121202000,
#LYRIC I'm alone, alone forever
1011202011202011,
1022201022201000,
#LYRIC And it seems like that will never change
1011201122112110,
200100100100200200100000400000100100200000202020,
#LYRIC I wish I could live in a dream
#GOGOSTART
1022102210221010,
1121201120222000,
#LYRIC And escape this hideous reality
1011201020112210,
2210221210204000,
#LYRIC Where I'm just never enough...
1011202011112010,
1011201222102010,
#LYRIC I'll never be enough
3022103012221030,
0011201120112112,
#LYRIC "Just who are you?" "Just who am I"
1022121012201012,
2010221022111000,
#LYRIC Questions ring around my head
1220102210121012,
2210221220
#LYRIC I'm none, nothing at all, aren't I?!
121020,
32232333,
2011221121112000,
7000008
#SCROLL 1.5
3,
0330
#SCROLL 1
#GOGOEND
#LYRIC Won't I ever escape?!
0000,
#SCROLL 1.15
1011201202112110,
1121202202122210,
#LYRIC
1011210212201210,
100000200200100000200200100200100000100000202020,
1012012012212210,
100000202020200000100100200200100000200100200000,
1221221212212210,
100010001000100000000000200020002000100000000000200020001000100000000000100000100000585858580000,
1011201202112110,
1121202202122010,
1011210212201210,
#LYRIC ...I want to bloom
100020002000100010002000100010002000100100200200,
1022122212102210,
202020100000200200100000200200100200100200200000,
#SCROLL 1.3
#GOGOSTART
#LYRIC I
33233233,
20030030000020202020
#GOGOEND
2020,
#LYRIC WANT
#GOGOSTART
#SCROLL 1.5
100100100000200000100100100000200000101010100000,
#LYRIC TO
200000300000300000000000200200200200202020200000,
#GOGOEND
#SCROLL 88.888
#LYRIC BLOOOOOOOOM
60008000
#LYRIC BL00000000M
6080
#LYRIC BL888M
608
#LYRIC BLO0O0O0O0O0O0O0OM
680
#LYRIC BL88888888M
68
#LYRIC BL00M
68
#LYRIC BL8888888888888888888888888888888888888M
68
#LYRIC BLOOOOOOOOM
6080
#LYRIC FOREVER!
6080
#LYRIC BLOOOOOOOOM
6080
#LYRIC BLOOOOOOO000000000OM
600080
#LYRIC ENDLESSLY!!
60008
#LYRIC 888.
060000000
#SCROLL 1.1888
80000000,
#LYRIC I wish I could live in a dream
#GOGOSTART
1022102210221210,
1121201120222020,
#LYRIC And escape this hideous reality
1011201120112210,
2210221210204000,
#LYRIC Where I'm just never enough...
1011202011112011,
101120122210
#LYRIC I'LL NEVER BE ENOUGH!
2010,
3022103012221030,
0011201122112112,
#LYRIC "Just who are you?" "Just who am I?"
1022121012201012,
2010221022111012,
#LYRIC Questions ring around my head
1220102210121012,
2210221222
#LYRIC I'm none, nothing at all, AREN'T I?!
121020,
3022203020303030,
2011221121112011,
1022112212111030,
#GOGOEND
0330
#LYRIC WON'T I EVER ESCAPE?!
0000,
#GOGOSTART
#LYRIC WON'T I EVER ESCAPE?! I CAN'T SEE,
30203020
#LYRIC WON'T I EVER ESCAPE?! I CAN'T SEE, I CAN'T HEAR,
30201011,
#LYRIC WON'T I EVER ESCAPE?! I CAN'T SEE, I CAN'T HEAR, I CAN'T FEEL,
11101022
#LYRIC I CAN'T SEE, I CAN'T HEAR, I CAN'T FEEL, I CAN'T BREATHE
10201011,
#LYRIC I CAN'T HEAR, I CAN'T FEEL, I CAN'T BREATHE, I CAN'T SCREAM,
10201020
#LYRIC I CAN'T FEEL, I CAN'T BREATHE, I CAN'T SCREAM, I CAN'T CRY,
10221011,
#LYRIC I CAN'T BREATHE, I CAN'T SCREAM, I CAN'T CRY, WHO ARE YOU?
101010100000101010100000
#LYRIC I CAN'T BREATHE, I CAN'T SCREAM, I CAN'T CRY, WHO ARE YOU? WHO AM I?!
100000100100101010100000,
#LYRIC I CAN'T SCREAM, I CAN'T CRY, WHO ARE YOU? WHO AM I?! CAN'T YOU SEE?
#BPMCHANGE 224.00000000000003
10221220
#LYRIC I CAN'T CRY, WHO ARE YOU? WHO AM I?! CAN'T YOU SEE? WILL YOU SEE?
10201011,
#LYRIC WHO ARE YOU? WHO AM I?! CAN'T YOU SEE? WILL YOU SEE? I AM HERE!
10101010
#LYRIC WHO AM I?! CAN'T YOU SEE? WILL YOU SEE? I AM HERE! I AM ME!
10201011,
#LYRIC CAN'T YOU SEE? WILL YOU SEE? I AM HERE! I AM ME! CAN'T YOU HEAR?
10221040
#LYRIC WILL YOU SEE? I AM HERE! I AM ME! CAN'T YOU HEAR? WON'T YOU HEAR?
10221011,
#LYRIC I AM HERE! I AM ME! CAN'T YOU HEAR? WON'T YOU HEAR? ALL MY CRIES?
101010100000101010100000
#LYRIC I AM ME! CAN'T YOU HEAR? WON'T YOU HEAR? ALL MY CRIES? ALL MY SCREAMS?
100000100000101010100100,
#BPMCHANGE 230
#LYRIC CAN'T YOU HEAR? WON'T YOU HEAR? ALL MY CRIES? ALL MY SCREAMS? I CAN'T SEE,
10221022
#LYRIC WON'T YOU HEAR? ALL MY CRIES? ALL MY SCREAMS? I CAN'T SEE, I CAN'T HEAR,
10221010,
#LYRIC ALL MY CRIES? ALL MY SCREAMS? I CAN'T SEE, I CAN'T HEAR, I CAN'T FEEL,
100000101010100000100000
#LYRIC ALL MY SCREAMS? I CAN'T SEE, I CAN'T HEAR, I CAN'T FEEL, I CAN'T BREATHE,
100100000100100000101010,
#LYRIC I CAN'T SEE, I CAN'T HEAR, I CAN'T FEEL, I CAN'T BREATHE, I CAN'T SCREAM,
#BPMCHANGE 236
11111011
#LYRIC I CAN'T HEAR, I CAN'T FEEL, I CAN'T BREATHE, I CAN'T SCREAM, I CAN'T CRY,
10101010,
#LYRIC I CAN'T FEEL, I CAN'T BREATHE, I CAN'T SCREAM, I CAN'T CRY, WHO ARE YOU?
100000100100100000100100
#LYRIC I CAN'T BREATHE, I CAN'T SCREAM, I CAN'T CRY, WHO ARE YOU? WHO AM I?????
100100100100101010100100,
#BPMCHANGE 242
#LYRIC I CAN'T SCREAM, I CAN'T CRY, WHO ARE YOU? WHO AM I????? I CAN'T BREATHE
10111022
#LYRIC I CAN'T CRY, WHO ARE YOU? WHO AM I????? I CAN'T BREATHE I CAN'T BREATHE
22111121,
#LYRIC WHO ARE YOU? WHO AM I????? I CAN'T BREATHE I CAN'T BREATHE I CAN'T BREATHE
11112211
#LYRIC WHO AM I????? I CAN'T BREATHE I CAN'T BREATHE I CAN'T BREATHE I CAN'T BREATHE
11221111,
#LYRIC I CAN'T BREATHE I CAN'T BREATHE I CAN'T BREATHE I CAN'T BREATHE I CAN'T BREATHE
#BPMCHANGE 248
2121211121212120,
#LYRIC
#GOGOEND
#BPMCHANGE 88
#SCROLL 0.888
00
#LYRIC ...let me free.
00,
3,
#END
COURSE:2
LEVEL:8
BALLOON:4,9,9
#START
#BPMCHANGE 218
2,
2,
2,
22,
2,
2,
2,
2,
1022,
10002022,
10002022,
10221022,
10202022,
10202022,
10221022,
31313130,
1000201110102000,
1010201110102000,
1000201110102020,
12121210,
1010201110102000,
1011201020102000,
1022102010101022,
1333,
31211121,
1010201010102011,
11211122,
1022201110222010,
1010201110102011,
1010222020202000,
1020101110201020,
1333,
10210020,
10210120,
10210120,
11211120,
10210120,
11210120,
11211120,
4004004000102020,
10210020,
10210120,
11210120,
1010201010102011,
10210120,
11210120,
1010201110102010,
4440,
10212120,
2010201020222000,
1020101110201000,
40404440,
1010201000201011,
1022201022201000,
1010201110102010,
4004004070000080,
12120212,
1020102010222000,
12120211,
2020001022204000,
1010202000111050,
00008021,
3000203020222030,
0010200020102220,
12111201,
21010302,
10120114,
04040112,
30230333,
0010201022222000,
70000083,
03300000,
1010102010222010,
1022201020222010,
1010111110002220,
30323230,
1011011010101000,
2022202022022000,
3003003030030030,
58586868,
1010201101102010,
1020201101102000,
1010202202201010,
200020002000200000100000200020002000200000100100,
12121112,
12040400,
33033033,
000300300000202020200000,
11211233,
23300000,
6000800060806086806868686080608060806000806000806000000080000000,
12120212,
1020102010222000,
12120211,
2020001022204000,
1010202000111050,
00008021,
3000203020222030,
0010200020102220,
12111201,
21010302,
10120114,
04040112,
30230333,
0010201022222000,
70000083,
03300000,
1000100010001011,
1010100010001011,
10101011,
1110111010111110,
#BPMCHANGE 224.00000000000003
10101011,
1010101010001011,
10140114,
0010101010101111,
#BPMCHANGE 230
12121211,
1011101011011010,
#BPMCHANGE 236
1010101110101010,
11111111,
#BPMCHANGE 242
11111111,
1010101010101011,
#BPMCHANGE 248
1010101011111040,
#BPMCHANGE 88
0,
3,
#END
COURSE:1
LEVEL:6
BALLOON:4,9,9
#START
#BPMCHANGE 218
2,
2,
2,
22,
2,
2,
2,
2,
12,
12,
12,
1212,
1022,
1222,
1212,
3333,
10211020,
10210120,
1212,
3333,
1212,
10222020,
1122,
3333,
30211020,
10210120,
10211020,
4433,
10211020,
10210120,
11210120,
4343,
10210020,
10210020,
10210020,
11210020,
10210020,
11010020,
2222,
4004004000102020,
10010020,
10210020,
10210120,
10211021,
10010120,
10010120,
10211120,
4440,
1222,
22202000,
10111010,
40404440,
10110210,
10040030,
10201110,
40407008,
10100204,
03040300,
10120204,
03030440,
11220115,
0082,
30304046,
0008,
10110111,
02020202,
10110111,
02220200,
30030303,
00040040,
70000083,
03300000,
1001001010001000,
1001001010000000,
1001001010001000,
3333,
2002002020002000,
2002002020002000,
1001001010010010,
58586868,
11201120,
12202120,
11201210,
2002002002002000,
10201203,
03040400,
33033033,
000300300000200020200000,
33033033,
03300000,
6000800060806086806868686080608060806000806000800000000000000000,
12120204,
03040300,
12120204,
03030440,
11220115,
00008022,
30340406,
0008,
10110111,
02020202,
12110111,
02220200,
30030303,
00040040,
70000083,
03300000,
10101011,
11101011,
10101011,
58581158,
#BPMCHANGE 224.00000000000003
10101011,
11111011,
10140114,
01101111,
#BPMCHANGE 230
10121011,
1058101010010010,
#BPMCHANGE 236
11101011,
1000101010585858,
#BPMCHANGE 242
11101010,
11111010,
#BPMCHANGE 248
11111104,
#BPMCHANGE 88
0,
3,
#END
COURSE:0
LEVEL:5
BALLOON:4,9,9
#START
#BPMCHANGE 218
2,
2,
2,
2,
2,
2,
2,
2,
1,
12,
1,
11,
12,
12,
1110,
3333,
10010020,
10010000,
10010020,
3330,
10010020,
12,
10010020,
3330,
30010020,
10010020,
10010020,
4433,
10010020,
10010020,
10010020,
4440,
10010000,
10010000,
10010020,
11,
10010020,
10010000,
2222,
40040000,
10010000,
10010000,
10010020,
10010020,
10010000,
10010000,
1210,
4440,
1202,
2220,
1110,
4444,
10010010,
10040030,
1211,
40407008,
10010004,
00040400,
10010204,
0344,
10020105,
0082,
30004006,
0008,
10010101,
01010300,
20200202,
02020200,
30030303,
00040000,
70000083,
0300,
1122,
1120,
1122,
3333,
2211,
2210,
13,
58586868,
1212,
1220,
1211,
58,
10201003,
03040400,
30030030,
03002020,
30030030,
03000000,
6000800060806086806868686080608060806000806000800000000000000000,
10110004,
03040300,
10110004,
03030040,
10020105,
0082,
30040406,
0008,
1111,
2220,
2211,
2220,
30030303,
00040040,
70000083,
03300000,
1111,
1111,
1111,
58585080,
#BPMCHANGE 224.00000000000003
1111,
1111,
10040004,
0111,
#BPMCHANGE 230
1111,
1111,
#BPMCHANGE 236
1111,
1000100010585858,
#BPMCHANGE 242
1111,
1111,
#BPMCHANGE 248
10101004,
#BPMCHANGE 88
0,
3,
#END