BPM:130.809005737305
OFFSET:-2.185

COURSE:Edit
LEVEL:10
STYLE:Single
BALLOON:
SCOREINIT:380
SCOREDIFF:90
#START
300000200200101010100000300000200200101010100000,
#BPMCHANGE 126.651481628418
100020002000100020002000500000000000000000000000,
#BPMCHANGE 133.79866027832
000000000000000000000000000000000000000000000000,
#BPMCHANGE 134.100387573242
008000000000000000000000000000000000000000000000,
#BPMCHANGE 125.664978027344
#SCROLL 1.05999994277954
100000000000200000200000100000200200200000100000,
#BPMCHANGE 127.921951293945
#SCROLL 1.03999996185303
100000000000000000200000200000000000000000200200,
#BPMCHANGE 130.834686279297
#SCROLL 1
100000000000200000200000100000200200200000100000,
#BPMCHANGE 131.710662841797
#MEASURE 2/4
100000000000200000200000,
#BPMCHANGE 130.000137329102
#MEASURE 4/4
#BARLINEOFF
100000100100200010102000100200100100200010102000,
#BARLINEON
100100100200200100200100200100200200100200000000,
#GOGOSTART
100000100100200100000100100000100100200100000100,
100000100100200100000100100100200100100100200000,
100000100100200100000100100000100100200100000100,
100000100100200100000100100100200100100100200000,
#MEASURE 2/4
100200100100200200100200,
#GOGOEND
#MEASURE 4/4
#BARLINEOFF
100100101010200100100100100100101010200100100100,
#BARLINEON
100100101010200100100100200100200100200100200100,
100100101010200100100100100100101010200100100100,
100100101010200100100100200100200100200100200100,
#MEASURE 2/4
100200100100200200100200,
#MEASURE 4/4
#BARLINEOFF
100000001010200100200200100200200100200200100000,
#BARLINEON
101010000000202020000000101010000000200200100000,
100000001010200100200200100200200100200200100000,
101010000000202020000000101010000000300000000000,
#GOGOSTART
100000100100200100000100100000100100200100000100,
100000100100200100000100100100200100100100200000,
100000100100200100000100100000100100200100000100,
100000100100200100000100100100200100100100200000,
#GOGOEND
#MEASURE 2/4
100200100100200200100200,
#MEASURE 4/4
#BARLINEOFF
100000200100100200000100100200200100100000200100,
#BARLINEON
100000200100100200000100100200200100200100100200,
100000200100100200000100100200200100100000200100,
100000200100100200000100100200200100200100100200,
100000200100100200000100100200200100100000200100,
100000200100100200000100100200200100200100100200,
100000200100100200000100100200200100100000100200,
200100100200100200200100100200100200200100100200,
100000200000100100200000100010200010100100200000,
100000200000100100200000100010200010100100200000,
100000200000100100200000100010200010100100200000,
100000200000100100200000100010200010100010200000,
100000200000100100200000100010200010100100200000,
100000200000100100200000100010200010100100200000,
100000200000100100200000100010200010100100200000,
100000200000100100200000100010200010100010200010,
100000000000000000000000100000000000100000100000,
100100100100200100100200100100100100200100100200,
100100100100200100100200100200100100201010100000,
#MEASURE 2/4
300000300000200200200200,
#GOGOSTART
#MEASURE 4/4
#BARLINEOFF
100000101010200100000100100000101010200100000100,
#BARLINEON
100000101010200100000100100100200200100100200000,
100000101010200100000100100000101010200100000100,
100000101010200100000100100100200200100100200000,
#GOGOEND
#MEASURE 2/4
100200100100200200100200,
#MEASURE 4/4
#BARLINEOFF
100100101010200100100100100100101010200100100100,
#BARLINEON
100100101010200100100100200100200100200100200100,
100100101010200200100100100100101010200200100100,
100100101010200200100100200100200100200100200100,
#MEASURE 2/4
100200100100200200100200,
#MEASURE 4/4
#BARLINEOFF
100000200100100200000100100200000200100100200100,
#BARLINEON
100000200100100200000100100200000100100200200100,
100000200100100200000100100200000200100100200100,
100000200100100200000100100200000100100200200100,
100000200100100200000100100200100100200000200100,
100000200100100200000100100200100100200000200100,
200000200100100200000200000200100100200000200000,
100200000200200200000200200200000200000300000000,
100000200100100200000100100200200100100000200100,
100000200100100200000200200100100200200000200100,
100000200100100200000100100200200100100000200100,
100000200100100200000200200100100200200000200100,
100000200100100200000100100200100200200100200100,
100000200100100200000100100200100200200100200100,
100000200200100100000000200200100100000000200000,
100100000000200000100100000200000100000300000000,
#GOGOSTART
100000101010200100000100100000101010200100000100,
100000101010200100100200100100200100200000000000,
100000101010200100000100100000101010200100000100,
100000101010200100100200100100200100200000000100,
#SECTION
#BRANCHSTART p,
52.85412,
73.99577
#N
100000201010200100000100200000000000300000000100,
100000201010200100000100200000000000300000000100,
100000201010200100000100200000000000300000000100,
100000201010200100000100508000000000000000000000,
#GOGOEND
000000000000000000000000000000000000000000000000,
000000000000000000000000000000000000000000000000,
#E
100000201010200100000100200000000000300000000100,
100000201010200100000100200000000000300000000100,
100000201010200100000100200000000000300000000100,
100000201010200100100100508000000000000000000000,
#GOGOEND
000000000000000000000000000000000000000000000000,
000000000000000000000000000000000000000000000000,
#M
100000201010200100000100200000000000300000000100,
100000201010200100000100200000000000300000000100,
100000201010200100000100200000000000300000000100,
100000201010200100100100100000000000000000000000,
#GOGOEND
000000000000000000000000000000000000000000000000,
000000000000000000000000000000000000000000000000,
#BRANCHEND
#END // NB: I currently do not have an official fumen // that has the correct 2P charts, so I've // commented them out for now. //STYLE:Double //BALLOON:8 //SCOREINIT:380 //SCOREDIFF:90 // //#START P1 //300000000000000000000000600000000008000000000000, //#BPMCHANGE
126.651481628418 //100000000000300000000000500000000000000000000000, //#BPMCHANGE
133.79866027832 //000000000000000000000000000000000000000000000000, //#BPMCHANGE
134.100387573242 //008000000000000000000000000000000000000000000000, //#BPMCHANGE
125.664978027344 //#SCROLL
1.01999998092651 //000000000000000000000000100000100000100000100000, //#BPMCHANGE
127.921951293945 //#SCROLL
1 //200000000000000000200000200000000000000000000000, //#BPMCHANGE
130.834686279297 //#SCROLL
0.980000019073486 //000000000000000000000000000000000000000000000000, //#BPMCHANGE
131.710662841797 //#SCROLL
1 //#MEASURE
2/4 //000000000000000000000000, //#BPMCHANGE
130.000137329102 //#MEASURE
4/4 //100000000000200000000000100000100100200000000000, //700000000000000000000000008000000000100200000000, //#GOGOSTART //100000100100200000000000100000100100200000000000, //100000100100200000000000000000200000000000200000, //100000000000200000100100100000000000200000100100, //100000000000200000100000100100100000100100100000, //#MEASURE
2/4 //300000000000000000000000, //#GOGOEND //#MEASURE
4/4 //000000100100200000100100000000100100200000100100, //000000100100200000100100100000100000100000100000, //100000200000100100000000100000200000100100000000, //100000200000100100000000100000100000100000100000, //#MEASURE
2/4 //100100100000100100100000, //#MEASURE
4/4 //100000000100100000200000100000000000000000000000, //100100000000200200000000100100000000200200200000, //100000000000200000000000100100200000000000000000, //100100000000200200000000100100000000300000000000, //#GOGOSTART //100000000000200000100100100000000000200000100100, //100000000000200000100000100100100000100100100000, //100000100100200000000000100000100100200000000000, //100000100100200000100000000000200000000000200000, //#GOGOEND //#MEASURE
2/4 //300000000000000000000000, //#MEASURE
4/4 //100000000100100000000100100000000100100000200000, //100000000100100000000100100000000100100000200000, //100000000100100000000100100000000100100000200000, //100000000100100000000000100000000100000000200000, //100000000000200000000000100200100000200000000000, //100000000000200000000000100200100000200000000000, //000000000000000000000000200200200200200000000000, //000000000000200200200200100000000000000000000000, //100000200000100100100000100000200000100100100000, //100000200000000000200000100000200000000000200000, //100000200000100100100000100000200000100100100000, //100000200000000000200000100000200000000000200000, //100000200000100100100000100000200000100100100000, //100000200000000000200000100000200000000000200000, //100000200000100100100000100000200000100100100000, //000000000000100100100000000000000000100100100100, //100000000000000000000000100000000000100000000000, //100100100100000000000000100100100100000000000000, //200200200200000000000000200200200200000000000000, //#MEASURE
2/4 //300000000000000000000000, //#GOGOSTART //#MEASURE
4/4 //100000100100200000000000100000100100200000000000, //100000100100200000000000000000200000000000200000, //100000000000200000100100100000000000200000100100, //100000000000200000100000100100100000100100100000, //#GOGOEND //#MEASURE
2/4 //300000000000000000000000, //#MEASURE
4/4 //000000100100200200100100000000100100200200100100, //000000100100200200100100100000100000100000100000, //100000200000100100000000100000200000100100000000, //100000200000100100000000100000100000100000100000, //#MEASURE
2/4 //100100100000100100100000, //#MEASURE
4/4 //100000200100100000000100100000000100100000200000, //100000200100100000000100100000000100100000200000, //100000000000200000000000100200100000200000000000, //100000000000200000000000100200100000200000000000, //100000200100100000000100100000000100100000200000, //100000200100100000000100100000000100100000200000, //000000000000000000000000000000000000200000200000, //100000000000100000000000100000100000000300000000, //100000000100200000000000100200100000200000000000, //100000000100200000000000100200100000200000000000, //100000200100100000000100100000000100100000200000, //100000200100100000000100100000000200200000200000, //100000000100200000000000100200100000200000000000, //100000000100200000000000100200100000100000000000, //000000100000100100000000000000000000000000100000, //100100000000000000000000000000100000000300000000, //#GOGOSTART //100000100100200000000000100000100100200000000000, //100000100100200000000000100000000000300000000000, //100000000000200000100100100000000000200000100100, //100000000000200000100100100000000000000000000000, //100000100100100100000100100000000000300000000000, //100000000000200000100000100000000000300000000000, //100000100100100100000100100000000000300000000000, //100000100100200200000200100000000000000000000000, //#GOGOEND //000000000000000000000000000000000000000000000000, //000000000000000000000000000000000000000000000000, //#END // //BALLOON:8 //SCOREINIT:690 //SCOREDIFF:90 // //#START P2 //600000000008000000000000300000000000000000000000, //#BPMCHANGE
126.651481628418 //100000000000300000000000500000000000000000000000, //#BPMCHANGE
133.79866027832 //000000000000000000000000000000000000000000000000, //#BPMCHANGE
134.100387573242 //008000000000000000000000000000000000000000000000, //#BPMCHANGE
125.664978027344 //#SCROLL
1.01999998092651 //000000000000000000000000000000000000000000000000, //#BPMCHANGE
127.921951293945 //#SCROLL
1 //000000000000000000000000000000000000000000000000, //#BPMCHANGE
130.834686279297 //#SCROLL
0.980000019073486 //100000000000000000000000100000100000100000100000, //#BPMCHANGE
131.710662841797 //#SCROLL
1 //#MEASURE
2/4 //200000000000200000200000, //#BPMCHANGE
130.000137329102 //#MEASURE
4/4 //100000000000200000000000100000100100200000000000, //700000000000000000000000008000000000100200000000, //#GOGOSTART //100000000000200000100100100000000000200000100100, //100000000000200000100000100100100000100100100000, //100000100100200000000000100000100100200000000000, //100000100100200000000000000000200000000000200000, //#MEASURE
2/4 //300000000000000000000000, //#GOGOEND //#MEASURE
4/4 //100000200000100100000000100000200000100100000000, //100000200000100100000000100000100000100000100000, //000000100100200000100100000000100100200000100100, //000000100100200000100100100000100000100000100000, //#MEASURE
2/4 //100100100000100100100000, //#MEASURE
4/4 //100000000000200000000000100100200000000000000000, //100100000000200200000000100100000000200200200000, //100000000100100000200000100000000000000000000000, //100100000000200200000000100100000000300000000000, //#GOGOSTART //100000100100200000000000100000100100200000000000, //100000100100200000000000000000200000000000200000, //100000000000200000100000100000000000200000100000, //100000000000200000100000100100100000100100100000, //#GOGOEND //#MEASURE
2/4 //300000000000000000000000, //#MEASURE
4/4 //100000000000200000000000100200100000200000000000, //100000000000200000000000100200100000200000000000, //100000000000200000000000100200100000200000000000, //100000000000200000000000100000000100000000200000, //100000000100100000000100100000000100100000200000, //100000000100100000000100100000000100100000200000, //100100100100100000000000000000000000000000100100, //100100100000000000000000000000000000000000000000, //100000200000000000200000100000200000000000200000, //100000200000100100100000100000200000100100100000, //100000200000000000200000100000200000000000200000, //100000200000100100100000100100100000100100100000, //100000200000000000200000100000200000000000200000, //100000200000100100100000100000200000100100100000, //100000200000000000200000100000200000000000200000, //100100100000000000000000100100100100000000000000, //100000000000000000000000100000000000100000000000, //000000000000200200200200000000000000200200200200, //000000000000100100100100000000000000100100100000, //#MEASURE
2/4 //300000000000000000000000, //#GOGOSTART //#MEASURE
4/4 //100000000000200000100100100000000000200000100100, //100000000000200000100000100100100000100100100000, //100000100100200000000000100000100100200000000000, //100000100100200000100000100100100000100100100000, //#GOGOEND //#MEASURE
2/4 //300000000000000000000000, //#MEASURE
4/4 //100000200000100100000000100000200000100100000000, //100000200000100100000000100000100000100000100000, //000000100100200200100100000000100100200200100100, //000000100100200200100100100000100000100000100000, //#MEASURE
2/4 //100100100000100100100000, //#MEASURE
4/4 //100000000000200000000000100200100000200000000000, //100000000000200000000000100200100000200000000000, //100000200100100000000100100000000100100000200000, //100000200100100000000100100000000200200000200000, //100000000000200000000000100200100000200000000000, //100000000000200000000000100200100000200000000000, //000000000000000000000000000000000000200000200000, //100000000000100000000000100000100000000300000000, //100000200100100000000100100000000100100000200000, //100000200100100000000100100000000100100000200000, //100000000100200000000000100200100000200000000000, //100000000100200000000000100200100000200000000000, //100000200100100000000100100000000100100000200000, //100000200100100000000100100000000100100000200000, //000000000000000000000000100000100100000000000000, //000000000000100000100100000000100000000300000000, //#GOGOSTART //100000000000200000100100100000000000200000100100, //100000000000200000100100100000000000000000000000, //100000100100200000000000100000100100200000000000, //100000100100200000000000100000000000300000000000, //100000000000200000100000100000000000300000000000, //100000100100100100000100100000000000300000000000, //100000000000200000100000100000000000300000000000, //100000100100200200000200100000000000000000000000, //#GOGOEND //000000000000000000000000000000000000000000000000, //000000000000000000000000000000000000000000000000, //#END

COURSE:Oni
LEVEL:8
BALLOON:
SCOREINIT:410
SCOREDIFF:107
#START
100000000000000000000000100000000000000000000000,
#BPMCHANGE 126.651481628418
100000000000100000000000500000000000000000000000,
#BPMCHANGE 133.79866027832
000000000000000000000000000000000000000000000000,
#BPMCHANGE 134.100387573242
008000000000000000000000000000000000000000000000,
#BPMCHANGE 125.664978027344
#SCROLL 1.01999998092651
000000000000000000000000100000100000100000100000,
#BPMCHANGE 127.921951293945
#SCROLL 1
200000000000000000200000200000000000000000000000,
#BPMCHANGE 130.834686279297
#SCROLL 0.980000019073486
000000000000000000000000100000100000100000100000,
#BPMCHANGE 131.710662841797
#SCROLL 1
#MEASURE 2/4
200000000000200000200000,
#BPMCHANGE 130.000137329102
#MEASURE 4/4
100000100100200000000000100200100100200000000000,
100100100200000100000100000100000100100200000000,
#GOGOSTART
100000100100200100000100100000100100200100000100,
100000100100200100000100100100200000100100200000,
100000100100200100000100100000100100200100000100,
100000100100200100000100100100200000100100200000,
#MEASURE 2/4
100000100100100100100100,
#GOGOEND
#MEASURE 4/4
000000100100200000100100000000100100200000100100,
000000100100200000100100100000100000100000100000,
000000100100200000100100000000100100200000100100,
000000100100200000100100100000100000100000100000,
#MEASURE 2/4
100000100000200200100100,
#MEASURE 4/4
100000000100100100200200100000000000000000000000,
100100000000200200000000100100000000200200100000,
100000000100100100200200100000000000000000000000,
100100000000200200000000100100100000300000000000,
#GOGOSTART
100000100100200100000100100000100100200100000100,
100000100100200100000100100100200000100100200000,
100000100100200100000100100000100100200100000100,
100000100100200100000100100100200000100100200000,
#GOGOEND
#MEASURE 2/4
100000200200200200200200,
#MEASURE 4/4
100000000100100000000100100000000100100000200000,
100000000100100000000100100000000100100200200100,
100000000100100000000100100000000100100000200000,
100000000100100000000100100200200100100200200100,
100000000100100000000100100000000100100000200000,
100000000100100000000100100000000100100200200100,
100000000100100000000100100200200100100000100200,
200100100000100200200100100000000000000000000000,
100000200000100100200000100000200000100100200000,
100000200000100100200000100000200000100100200000,
100000200000100100200000100000200000100100200000,
100000200000100100200000100100200100100100200100,
100000200000100100200000100000200000100100200000,
100000200000100100200000100000200000100100200000,
100000200000100100200000100000200000100100200000,
100100200100100100200100100100100100100100100100,
100000000000000000000000100000000000100000000000,
100000100000200000100200100000100000200000100200,
100000100000200000100200100200100000100100100000,
#MEASURE 2/4
300000000000000000000000,
#GOGOSTART
#MEASURE 4/4
100000100100200100000100100000100100200100000100,
100000100100200100000100100100200000100100200000,
100000100100200100000100100000100100200100000100,
100000100100200100000100100100200000100100200000,
#GOGOEND
#MEASURE 2/4
100000100100100100100100,
#MEASURE 4/4
100000100100200000100100100000100100200000100100,
100000100100200000100100100000100000100000100000,
100000100100200200100100100000100100200200100100,
100000100100200200100100100000100000100000100000,
#MEASURE 2/4
100000100000100100100100,
#MEASURE 4/4
100000200100100200000100100200000100100000200100,
100000200100100200000100100200000100100000200100,
100000200100100200000100100200000100100000200100,
100000200100100200000100100200000200200000200200,
100000200100100200000100100200000100100000200100,
100000200100100200000100100200000100100000200100,
200000200000000200000200000200000000200000200000,
100200000200200200000200200200000200000300000000,
100000200100100200000100100200000100100000200100,
100000200100100200000100100200000100100000200100,
100000200100100200000100100200000100100000200100,
100000200100100200000100100200000200000200100100,
100000200100100200000100100200000100100000200100,
100000200100100200000100100200000100100000200100,
000000200000100100000000200000100100000000200000,
100100000000200000100100000000100000000300000000,
#GOGOSTART
100000100100200100000100100000100100200100000100,
100000100100200100000100100000000000300000000000,
100000100100200100000100100000100100200100000100,
100000100100200100000100100000000000300000000000,
100000100100200100000100100000000000300000000000,
100000100100200100000100100000000000300000000000,
100000100100200100000100100000000000300000000000,
100000100100100100000100100000000000000000000000,
#GOGOEND
000000000000000000000000000000000000000000000000,
000000000000000000000000000000000000000000000000,
#END

COURSE:Hard
LEVEL:7
BALLOON:8
SCOREINIT:430
SCOREDIFF:105
#START
100000000000000000000000100000000000000000000000,
#BPMCHANGE 126.651481628418
100000000000100000000000500000000000000000000000,
#BPMCHANGE 133.79866027832
000000000000000000000000000000000000000000000000,
#BPMCHANGE 134.100387573242
008000000000000000000000000000000000000000000000,
#BPMCHANGE 125.664978027344
#SCROLL 1.01999998092651
000000000000000000000000100000100000100000100000,
#BPMCHANGE 127.921951293945
#SCROLL 1
200000000000000000200000200000000000000000000000,
#BPMCHANGE 130.834686279297
#SCROLL 0.980000019073486
100000000000000000000000100000100000100000100000,
#BPMCHANGE 131.710662841797
#SCROLL 1
#MEASURE 2/4
200000000000200000200000,
#BPMCHANGE 130.000137329102
#MEASURE 4/4
100000000000200000000000100000100100200000000000,
700000000000000000000000008000000000100200000000,
#GOGOSTART
100000100100200000000000100000100100200000000000,
100000100100200000000000100100100000100100100000,
100000100100200000000000100000100100200000000000,
100000100100200000000000100100100000100100100000,
#MEASURE 2/4
300000000000000000000000,
#GOGOEND
#MEASURE 4/4
000000100100200000100100000000100100200000100100,
000000100100200000100100100000100000100000100000,
000000100100200000100100000000100100200000100100,
000000100100200000100100100000100000100000100000,
#MEASURE 2/4
100000100000100100100000,
#MEASURE 4/4
100000000100100000200000100000000000000000000000,
100100000000200200000000100100000000200200200000,
100000000100100000200000100000000000000000000000,
100100000000200200000000100100100000300000000000,
#GOGOSTART
100000100100200000000000100000100100200000000000,
100000100100200000000000100100100000100100100000,
100000100100200000000000100000100100200000000000,
100000100100200000000000100100100000100100100000,
#GOGOEND
#MEASURE 2/4
300000000000000000000000,
#MEASURE 4/4
100000000100100000000100100000000100100000200000,
100000000100100000000100100000000100100000200000,
100000000100100000000100100000000100100000200000,
100000000100100000000000200000000200000000200000,
100000000100100000000100100000000100100000200000,
100000000100100000000100100000000100100000200000,
100100100100100000000000200200200200200000100100,
100100100000200200200200100000000000000000000000,
100000200000100100100000100000200000100100100000,
100000200000100100100000100000200000100100100000,
100000200000100100100000100000200000100100100000,
100000200000100100100000100100100000100100100000,
100000200000100100100000100000200000100100100000,
100000200000100100100000100000200000100100100000,
100000200000100100100000100000200000100100100000,
100100100000100100100000100100100100100100100100,
100000000000000000000000100000000000100000000000,
100000100000200000000200100000100000200000000200,
100000100000200000000200100100100000100100100000,
#MEASURE 2/4
300000000000000000000000,
#GOGOSTART
#MEASURE 4/4
100000100100200000000000100000100100200000000000,
100000100100200000000000100100100000100100100000,
100000100100200000000000100000100100200000000000,
100000100100200000000000100100100000100100100000,
#GOGOEND
#MEASURE 2/4
300000000000000000000000,
#MEASURE 4/4
000000100100200000100100000000100100200000100100,
000000100100200000100100100000100000100000100000,
000000100100200200100100000000100100200200100100,
000000100100200200100100100000100000100000100000,
#MEASURE 2/4
300000000000000000000000,
#MEASURE 4/4
100000200100100000000100100000000100100000200000,
100000200100100000000100100000000100100000200000,
100000200100100000000100100000000100100000200000,
100000200100100000000100100000000200200000200000,
100000200100100000000100100000000100100000200000,
100000200100100000000100100000000100100000200000,
200000200000000200000200000200000000200000200000,
100000000000100000000000100000100000000300000000,
100000200100100000000100100000000100100000200000,
100000200100100000000100100000000100100000200000,
100000200100100000000100100000000100100000200000,
100000200100100000000100100000000200200000200000,
100000200100100000000100100000000100100000200000,
100000200100100000000100100000000100100000200000,
000000100000100100000000100000100100000000100000,
100100000000100000100100000000100000000300000000,
#GOGOSTART
100000100100200000000000100000100100200000000000,
100000100100200000000000100000000000300000000000,
100000100100200000000000100000100100200000000000,
100000100100200000000000100000000000300000000000,
100000100100100100000100100000000000300000000000,
100000100100200200000200200000000000300000000000,
100000100100100100000100100000000000300000000000,
100000100100200200000200100000000000000000000000,
#GOGOEND
000000000000000000000000000000000000000000000000,
000000000000000000000000000000000000000000000000,
#END

COURSE:Normal
LEVEL:5
BALLOON:
SCOREINIT:720
SCOREDIFF:235
#START
300000000000000000000000300000000000000000000000,
#BPMCHANGE 126.651481628418
100000000000100000000000500000000000000000000000,
#BPMCHANGE 133.79866027832
000000000000000000000000000000000000000000000000,
#BPMCHANGE 134.100387573242
008000000000000000000000000000000000000000000000,
#BPMCHANGE 125.664978027344
#SCROLL 1.01999998092651
100000000000000000000000200000000000000000000000,
#BPMCHANGE 127.921951293945
#SCROLL 1
100000100000000000000000200000000000000000000000,
#BPMCHANGE 130.834686279297
#SCROLL 0.980000019073486
100000000000000000000000200000000000000000000000,
#BPMCHANGE 131.710662841797
#SCROLL 1
#MEASURE 2/4
100000100000000000000000,
#BPMCHANGE 130.000137329102
#MEASURE 4/4
500000000000000000000000000000000000000000000008,
000000000000000000000000000000000000000000000000,
#GOGOSTART
100000100000100000000000100000000000100000000000,
100000000000100000100000100000000000000000000000,
100000100000100000000000100000000000100000000000,
100000000000100000100000100000000000000000000000,
#GOGOEND
#MEASURE 2/4
000000000000000000000000,
#MEASURE 4/4
000000000000100100000000000000000000100100000000,
000000000000000000000000100000100000100000100000,
000000000000200200000000000000000000200200000000,
000000000000000000000000100000100000100000100000,
#MEASURE 2/4
000000000000000000000000,
#MEASURE 4/4
100000000000000000000000200000000000000000000000,
100100000000000000000000200200000000000000000000,
100000000000000000000000200000000000000000000000,
100100000000000000000000200200000000000000000000,
#GOGOSTART
100000100000100000000000100000000000100000000000,
100000000000100000100000100000000000000000000000,
100000100000100000000000100000000000100000000000,
100000000000100000100000100000000000000000000000,
#GOGOEND
#MEASURE 2/4
000000000000000000000000,
#MEASURE 4/4
100000000000000000000000100100000000000000000000,
100000000000000000000000100100000000000000000000,
100000000000000000000000200200000000000000100100,
100000000100000000000000000000000000000000000000,
100000000000000000000000100100000000000000000000,
100000000000000000000000100100000000000000000000,
100000000000000000000000100000100000100000000000,
000000000000000000000000000000000000000000000000,
100000100000000000200000000000000000000000000000,
100000000000200000000000000000000000000000000000,
100000100000000000000000100000100000000000000000,
100000100000000000000000000000000000000000000000,
100000100000000000200000000000000000000000000000,
100000000000200000000000000000000000000000000000,
100000100000000000000000100000100000000000000000,
500000000000000000000000000000000000000000000008,
000000000000000000000000300000000000300000000000,
100000000000200000000000000000000000000000000000,
100000000000200000000000100000000000000000000000,
#MEASURE 2/4
000000000000000000000000,
#GOGOSTART
#MEASURE 4/4
100000100000100000000000100000100000100000000000,
100000000000100000100000100000000000000000000000,
100000100000100000000000100000100000100000000000,
100000000000100000100000100000000000000000000000,
#GOGOEND
#MEASURE 2/4
000000000000000000000000,
#MEASURE 4/4
000000000000100100000000000000000000100100000000,
000000000000000000000000100000100000100000100000,
000000000000100100000000000000000000100100000000,
000000000000000000000000100000100000100000100000,
#MEASURE 2/4
000000000000000000000000,
#MEASURE 4/4
100000000000000000000000100000000000000000000000,
100000100000000000000000100000000000000000000000,
100000000000000000000000100000000000000000000000,
100000100000000000000000100000000000000000000000,
100000000000000000000000100000000000000000000000,
200000000000200000000000200000000000000000000000,
000000000000000000000000000000000000000000000000,
100000000000100000000000100000100000000000000000,
100000000000000000000000100000000000000000000000,
100000100000000000000000200000000000000000000000,
100000000000000000000000100000000000000000000000,
100000100000000000000000200000000000000000000000,
100000000000200000000000100000000000200000000000,
100000000000200000000000100000000000200000000000,
100000000000000000000000100000000100000000100000,
000100000000100000000000000000000000000000000000,
#GOGOSTART
100000100000100000000000100000100000100000000000,
100000000000100000100000100000000000000000000000,
100000100000100000000000100000100000100000000000,
100000000000100000100000100000000000000000000000,
100000100000100000000000100000000000300000000000,
100000100000100000000000100000000000300000000000,
100000100000100000000000100000000000300000000000,
100000100000100000000000300000000000000000000000,
#GOGOEND
000000000000000000000000000000000000000000000000,
000000000000000000000000000000000000000000000000,
#END

COURSE:Easy
LEVEL:4
BALLOON:10
SCOREINIT:650
SCOREDIFF:245
#START
300000000000000000000000300000000000000000000000,
#BPMCHANGE 126.651481628418
100000000000100000000000500000000000000000000000,
#BPMCHANGE 133.79866027832
000000000000000000000000000000000000000000000000,
#BPMCHANGE 134.100387573242
008000000000000000000000000000000000000000000000,
#BPMCHANGE 125.664978027344
#SCROLL 1.01999998092651
100000000000000000000000200000000000000000000000,
#BPMCHANGE 127.921951293945
#SCROLL 1
100000000000000000000000100000000000000000000000,
#BPMCHANGE 130.834686279297
#SCROLL 0.980000019073486
100000000000000000000000200000000000000000000000,
#BPMCHANGE 131.710662841797
#SCROLL 1
#MEASURE 2/4
100000000000000000000000,
#BPMCHANGE 130.000137329102
#MEASURE 4/4
500000000000000000000000000000000000000000000008,
000000000000000000000000000000000000000000000000,
#GOGOSTART
100000000000000000000000100000000000000000000000,
100000000000100000000000100000000000000000000000,
100000000000000000000000100000000000000000000000,
100000000000100000000000100000000000000000000000,
#MEASURE 2/4
000000000000000000000000,
#GOGOEND
#MEASURE 4/4
100000000000000000000000100000000000000000000000,
100000000000000000000000300000000000000000000000,
100000000000000000000000100000000000000000000000,
100000000000000000000000300000000000000000000000,
#MEASURE 2/4
000000000000000000000000,
#MEASURE 4/4
100000000000000000000000200000000000000000000000,
100000000000100000000000100000000000000000000000,
100000000000000000000000200000000000000000000000,
100000000000100000000000100000000000000000000000,
#GOGOSTART
100000000000000000000000100000000000000000000000,
100000000000100000000000100000000000000000000000,
100000000000000000000000100000000000000000000000,
100000000000100000000000100000000000000000000000,
#GOGOEND
#MEASURE 2/4
000000000000000000000000,
#MEASURE 4/4
100000000000000000000000100100000000000000000000,
100000000000000000000000100100000000000000000000,
100000000000000000000000100100000000000000000000,
100000000000000000000000000000000000000000000000,
100000000000000000000000100100000000000000000000,
100000000000000000000000100100000000000000000000,
100000000000000000000000700000000000000000000000,
000000000000000000000000000080000000000000000000,
100000000000000000000000100000100000000000000000,
100000000000100000000000000000000000000000000000,
100000000000000000000000100000100000000000000000,
100000000000100000000000000000000000000000000000,
100000000000000000000000100000100000000000000000,
100000000000100000000000000000000000000000000000,
100000100000000000000000100000100000000000000000,
500000000000000000000000000000000000000000000008,
000000000000000000000000000000000000000000000000,
100000000000000000000000100000000000000000000000,
100000000000100000000000100000000000100000000000,
#MEASURE 2/4
000000000000000000000000,
#GOGOSTART
#MEASURE 4/4
100000000000000000000000100000000000000000000000,
100000000000100000000000100000000000000000000000,
100000000000000000000000100000000000000000000000,
100000000000100000000000100000000000000000000000,
#GOGOEND
#MEASURE 2/4
000000000000000000000000,
#MEASURE 4/4
100000000000000000000000100000000000000000000000,
100000000000000000000000300000000000000000000000,
100000000000000000000000100000000000000000000000,
100000000000000000000000300000000000000000000000,
#MEASURE 2/4
000000000000000000000000,
#MEASURE 4/4
100000000000000000000000100000000000000000000000,
100000100000000000000000100000000000000000000000,
100000000000000000000000100000000000000000000000,
100000100000000000000000100000000000000000000000,
100000000000000000000000100000000000000000000000,
200000000000200000000000200000000000000000000000,
000000000000000000000000000000000000000000000000,
100000000000100000000000100000100000000000000000,
100000000000000000000000000000000000000000000000,
100000100000000000000000200000000000000000000000,
100000000000000000000000000000000000000000000000,
100000100000000000000000200000000000000000000000,
100000000000200000000000100000000000000000000000,
100000000000200000000000100000000000000000000000,
100000000000000000000000500000000000000000000000,
000000000000000000000000000008000000000000000000,
#GOGOSTART
100000000000000000000000100000000000000000000000,
100000000000100000000000100000000000000000000000,
100000000000000000000000100000000000000000000000,
100000000000100000000000100000000000000000000000,
100000000000100000000000100000000000000000000000,
100000000000100000000000100000000000000000000000,
100000000000100000000000100000000000000000000000,
100000000000100000000000300000000000000000000000,
#GOGOEND
000000000000000000000000000000000000000000000000,
000000000000000000000000000000000000000000000000,
#END
