BPM:160
OFFSET:-1.705

COURSE:Edit
LEVEL:10
STYLE:Double
BALLOON:12
SCOREINIT:430
SCOREDIFF:112
#START P1
10000201,
10100220,
1000002220002010,
1000100000111020,
10000201,
10100220,
1000222000200020,
#MEASURE 2/4
1010,
#MEASURE 4/4
300000000000000111200000,
1112121211121222,
1112121211211212,
1112111212211212,
1112111212121000,
1112121211121222,
1212111212121112,
1112111212221222,
1112111212121110,
3003003000303030,
#MEASURE 2/4
,
#MEASURE 4/4
1010221010102210,
1010221020111020,
1010221010102210,
1010221010222220,
1010221010102210,
1010221020111020,
1010221010102210,
1000000010212121,
20011020,
1000001110100010,
10011020,
1000001110201000,
1020102210201011,
1020102210201011,
1020102210201011,
1022102121212111,
1000000030000022,
#GOGOSTART
1010001010221020,
1022101110102000,
1110201010221020,
1000700000000800,
1020112010222000,
1020112010222000,
1122002011220020,
1022102210221110,
1020112011111020,
1022102011111000,
1020112011111020,
1022121010221210,
1000201000102220,
1000201010101111,
1000202000002220,
3000202000002220,
5,
000000000000000000000000000000000008000000000000,
#GOGOEND
1112121211121212,
1121121211211212,
1112111211121112,
1122112212121212,
1212111212121112,
1212112112121121,
2211221122112221,
1112111212121222,
1221221022121210,
3,
#END
#START P2
10000201,
10100220,
1000002220002010,
1000100000111020,
10000201,
10100220,
1000222000200020,
#MEASURE 2/4
1010,
#MEASURE 4/4
300000000000000111200000,
1112121211121222,
1112121211211212,
1112111212211212,
1112111212103000,
1212111212121112,
1112121211211212,
1112111212221222,
1112111212121110,
3003003000303030,
#MEASURE 2/4
,
#MEASURE 4/4
1010102210101022,
1010102210201220,
1010102210101022,
1010102210112220,
1010102210101022,
1010102210202220,
1010102210101022,
1000000010212121,
20011020,
1000001110100010,
10011020,
1000001110001020,
1011202010102010,
1011201020101020,
1011201010112000,
1112111212121000,
3000000030000022,
#GOGOSTART
1022102010100010,
1110102011201000,
1022102010102210,
1020101011103000,
3011201020112010,
1011201020112010,
1000112210001122,
1000111011102020,
1022102010100010,
1110102011201020,
1022102011102020,
1122102011221020,
1000102210201110,
1020102210201110,
3000202000002220,
3000202000002220,
5,
000000000000000000000000000000000008000000000000,
#GOGOEND
1212111212121112,
1212112112121121,
2211221122112221,
1112111212121212,
1112121211121212,
1121121211211212,
1112111211121112,
1122112212121222,
1221221022121210,
3,
#END

COURSE:Oni
LEVEL:10
STYLE:Double
BALLOON:12
SCOREINIT:430
SCOREDIFF:112
#START P1
10000201,
10100220,
1000002220002010,
1000100000111020,
10000201,
10100220,
1000222000200020,
#MEASURE 2/4
1010,
#MEASURE 4/4
300000000000000111200000,
1112121211121222,
1112121211211212,
1112111212211212,
1112111212121000,
1112121211121222,
1212111212121112,
1112111212221222,
1112111212121110,
3003003000303030,
#MEASURE 2/4
,
#MEASURE 4/4
1010221010102210,
1010221020111020,
1010221010102210,
1010221010222220,
1010221010102210,
1010221020111020,
1010221010102210,
1000000010212121,
20011020,
1000001110100010,
10011020,
1000001110201000,
1020102210201011,
1020102210201011,
1020102210201011,
1022102121212111,
1000000030000022,
#GOGOSTART
1010001010221020,
1022101110102000,
1110201010221020,
1000700000000800,
1020112010222000,
1020112010222000,
1122002011220020,
1022102210221110,
1020112011111020,
1022102011111000,
1020112011111020,
1022121010221210,
1000201000102220,
1000201010101111,
1000202000002220,
3000202000002220,
5,
000000000000000000000000000000000008000000000000,
#GOGOEND
1112121211121212,
1121121211211212,
1112111211121112,
1122112212121212,
1212111212121112,
1212112112121121,
2211221122112221,
1112111212121222,
1221221022121210,
3,
#END
#START P2
10000201,
10100220,
1000002220002010,
1000100000111020,
10000201,
10100220,
1000222000200020,
#MEASURE 2/4
1010,
#MEASURE 4/4
300000000000000111200000,
1112121211121222,
1112121211211212,
1112111212211212,
1112111212103000,
1212111212121112,
1112121211211212,
1112111212221222,
1112111212121110,
3003003000303030,
#MEASURE 2/4
,
#MEASURE 4/4
1010102210101022,
1010102210201220,
1010102210101022,
1010102210112220,
1010102210101022,
1010102210202220,
1010102210101022,
1000000010212121,
20011020,
1000001110100010,
10011020,
1000001110001020,
1011202010102010,
1011201020101020,
1011201010112000,
1112111212121000,
3000000030000022,
#GOGOSTART
1022102010100010,
1110102011201000,
1022102010102210,
1020101011103000,
3011201020112010,
1011201020112010,
1000112210001122,
1000111011102020,
1022102010100010,
1110102011201020,
1022102011102020,
1122102011221020,
1000102210201110,
1020102210201110,
3000202000002220,
3000202000002220,
5,
000000000000000000000000000000000008000000000000,
#GOGOEND
1212111212121112,
1212112112121121,
2211221122112221,
1112111212121212,
1112121211121212,
1121121211211212,
1112111211121112,
1122112212121222,
1221221022121210,
3,
#END
STYLE:Single
BALLOON:
SCOREINIT:590
SCOREDIFF:157
#START
10000201,
10100220,
1000002220002010,
1000100000111020,
10000201,
10100220,
1000222000200020,
#MEASURE 2/4
1010,
#MEASURE 4/4
300000000000000111200000,
1112121211121222,
1112121211211212,
1112111212211212,
1112111212121000,
1112121211121222,
1112121211121212,
1112111212221222,
1112111212121110,
3003003000303030,
#MEASURE 2/4
,
#MEASURE 4/4
1010221010102210,
1010221020111020,
1010221010102210,
1010221010221120,
1010221010102210,
1010221020111020,
1010221010102211,
1000000010212121,
20011020,
1000001110200020,
10011020,
1000001110222020,
1020102210201011,
1020102210201011,
1020102210201011,
1022102121212111,
1000000030000022,
#GOGOSTART
1022102010112010,
1110102011201020,
1022101020102210,
1020101011103000,
3011201020112010,
1011201020112010,
1000112210001122,
1020112011122020,
1022102010112010,
1110102011201020,
1022102011102020,
1122102011221020,
1020102210201110,
1020102210221110,
3000202000002220,
3000202000002220,
5,
000000000000000000000000000000000008000000000000,
#GOGOEND
1112121211121212,
1121121211211212,
1112111211121112,
1122112212121212,
1112121211121212,
1112112112121121,
2211221122112212,
1112111212121222,
1221221022121210,
3,
#END

COURSE:Hard
LEVEL:8
BALLOON:8
SCOREINIT:610
SCOREDIFF:165
#START
30000201,
10100220,
10022021,
10100111,
10011201,
10100220,
10220202,
#MEASURE 2/4
10,
#MEASURE 4/4
3004,
1110111011011020,
1110111011101000,
1110111022202220,
1110111011103000,
1110111011011020,
1110111011101000,
1110111022202220,
1101101011101000,
3003003000303030,
#MEASURE 2/4
,
#MEASURE 4/4
1010201000111010,
1010201000111000,
1010201000111010,
1010201000222000,
1010201000111010,
1010201000111010,
11211121,
1000000011111000,
10011020,
1000001110000000,
10011020,
1000001110002000,
12121110,
12121010,
12101210,
500000000000000000000000000000000000000000000008,
03,
#GOGOSTART
1022202010111000,
1110202011102000,
1022202010111000,
1000700000000800,
3011101000200020,
1011101000222000,
1110200011102000,
1110111011102000,
1022202010111010,
1110202011102000,
1022202011101000,
3333,
3022202011101000,
1110202011102000,
30200220,
30200220,
5,
000000000000000000000000000000000008000000000000,
#GOGOEND
1110111011011020,
1110111011101000,
1110111022202220,
1110111011103000,
1110111011011020,
1110111011111000,
1110111022202220,
1101101101102000,
3003003000303030,
3,
,
,
,
,
,
,
#END

COURSE:Normal
LEVEL:5
BALLOON:8
SCOREINIT:710
SCOREDIFF:217
#START
11,
10100220,
11,
10100220,
11,
10100220,
11,
#MEASURE 2/4
11,
#MEASURE 4/4
3004,
11101110,
11101010,
11101110,
11111030,
11101110,
22202020,
11101110,
11111000,
3003003000303030,
#MEASURE 2/4
,
#MEASURE 4/4
11010110,
1011,
11010110,
12,
11010110,
1011,
11010110,
3,
10011000,
22,
10011000,
22,
10111010,
10111000,
10111010,
500000000000000000000000000000000000000000000008,
03,
#GOGOSTART
10222020,
1222,
10222020,
7000000000000800,
10100220,
10100220,
11,
1111,
10222020,
1222,
10222020,
3333,
30100220,
10100220,
30000220,
30000220,
5,
000000000000000000000000000000000008000000000000,
#GOGOEND
11101110,
11101010,
11101110,
11111030,
11101110,
22202020,
11101110,
11111030,
3003003000303030,
3,
,
,
,
,
,
,
#END

COURSE:Easy
LEVEL:4
BALLOON:
SCOREINIT:700
SCOREDIFF:280
#START
11,
1110,
11,
1,
11,
1110,
11,
#MEASURE 2/4
1,
#MEASURE 4/4
30,
1110,
11,
1110,
11,
2220,
22,
2220,
22,
3033,
#MEASURE 2/4
,
#MEASURE 4/4
1101,
12,
1101,
12,
1101,
12,
1101,
1,
11,
22,
11,
22,
1011,
1011,
11,
500000000000000000000000000000000000000000000008,
03,
#GOGOSTART
1202,
1202,
1202,
500000000000000000000008000000000000000000000000,
1120,
1120,
11,
1120,
1202,
1202,
1202,
3330,
1120,
1120,
34,
34,
5,
000000000000000000000000000000000008000000000000,
#GOGOEND
1111,
11,
1111,
11,
2222,
22,
2222,
22,
3330,
3,
,
,
,
,
,
,
#END
