BPM:220.000214
OFFSET:-8.827

COURSE:Edit
LEVEL:10
BALLOON:
SCOREINIT:290
SCOREDIFF:70
#START
1000201020111020,
0010201021101020,
0010201020111020,
0010201020111000,
4000201020111020,
0010201021101020,
0010201020111020,
0010201020111000,
2222101020111020,
01212444,
2211201020101020,
0010201020112220,
2222101020111020,
01212444,
2211201020101020,
0010201020112220,
2222101020111020,
01212444,
2211201020111020,
0010201020112220,
2222101020111020,
01212444,
2211201020111020,
01203333,
1110211011201020,
1110211011201020,
1110211011201020,
1110211011201000,
1110211011201020,
1110211011201020,
1110211011201020,
1110200020201110,
2020222020002020,
0022202030004000,
1010111010001010,
0011101030004000,
34003400,
34003400,
43434343,
34343400,
#GOGOSTART
1000201011102010,
0010201011102010,
0010201011102010,
0010201011102010,
1010201021101020,
0010201021101020,
0010201021101020,
0010201021102020,
1010201022112010,
0010201022112010,
0010201022112010,
0010201022112010,
1010201012221020,
0010201012221020,
0010201012221040,
04043030,
#GOGOEND
2010201020221020,
0010201020221020,
0010201020221020,
00204444,
0000201110111020,
0000201110111020,
0000201110111020,
00203043,
2222101020111020,
01212444,
2211201020111020,
0010201020112220,
2222101022111020,
0010211010404040,
2211201021111020,
0010201020112220,
2222101022111020,
0010211010404040,
2211201021112020,
0010201020112220,
2222101021111020,
0020211010404040,
2211201021112020,
0020201022101010,
#GOGOSTART
2221112221112221,
1122211122211122,
2111111112221111,
1222,
1111222211222211,
2222122212221110,
2211222211112222,
1111222211112222,
2210200000002210,
20022202,
2211221122112211,
2000200020002011,
1122101122102210,
2222102222102210,
1111222210002022,
20003300,
#GOGOEND
2011101020111020,
0022202030004000,
1022202010001010,
0011101030004000,
34003400,
34003400,
43434343,
34343400,
#GOGOSTART
1000201011102010,
0010201011102010,
0010201011102010,
0010201011102010,
1010201021101020,
0010201021101020,
0010201021101020,
0010201021102020,
1010201022112010,
0010201022112010,
0010201022112010,
0010201022112010,
1010201012221020,
0010201012221020,
0010201012221040,
04043020,
#GOGOEND
2010201022102010,
2010201022102010,
2010201022102010,
00204444,
1000201022102010,
2010201022102010,
2010201022102010,
20203334,
#END

COURSE:Oni
LEVEL:8
BALLOON:
SCOREINIT:330
SCOREDIFF:82
#START
1000200010111020,
0010200010111020,
0010200010111020,
0010200010111000,
1000200010111020,
0010200010111020,
0010200010111020,
0010200010111000,
2220100022201020,
01201444,
2220200011101010,
0010200011101000,
2220100022201020,
01201444,
2220200011101010,
0010200011101000,
2220100022201020,
01201444,
2220200011101010,
0010200011101000,
2220100022201020,
01201444,
2220200022201010,
01203030,
1110200010201020,
1110200010201020,
1110200010201020,
1110200010201000,
1110200010201020,
1110200010201020,
1110200010201020,
3344,
11221012,
02223040,
22112021,
01113040,
34003400,
34003400,
44444444,
33333300,
#GOGOSTART
10201121,
01201121,
01201121,
01201120,
10201121,
01201121,
01201121,
01201120,
1000201011102010,
0010201011102010,
0010201011102010,
0010201011102000,
1000201011102010,
0010201011102010,
0010201011102040,
04043030,
#GOGOEND
11020202,
01020202,
01020202,
00201111,
00010102,
00010102,
00010102,
00201011,
2220100022201020,
01201444,
2220200011101010,
0010200011101000,
2220100022201020,
01201444,
2220200011101010,
0010200011101000,
2220100022201020,
01201444,
2220200011101010,
0010200011101000,
2220100022201020,
01201444,
2220200022201010,
01203030,
#GOGOSTART
1110101011101010,
1110101011101010,
1110111011101110,
1222,
1110111011101000,
2220222022202000,
1110222011102220,
1110222011102000,
2220200020002220,
20202202,
2220111022201110,
2222,
1111101111101000,
2222202222202000,
1110222011102022,
20003300,
#GOGOEND
11221112,
02223040,
22112021,
01113040,
34003400,
34003400,
44444444,
33333300,
#GOGOSTART
10201121,
01201121,
01201121,
01201122,
10201121,
01201121,
01201121,
01201122,
1000201011102010,
0010201011102010,
0010201011102010,
0010201011102020,
1000201011102010,
0010201011102010,
0010201011102030,
03034000,
#GOGOEND
11020202,
01020202,
01020202,
00204444,
00020202,
00020202,
00020202,
00203334,
#END

COURSE:Hard
LEVEL:7
BALLOON:
SCOREINIT:340
SCOREDIFF:87
#START
10201112,
01201112,
01201112,
01201110,
10201112,
01201112,
01201112,
01201110,
20102212,
01201222,
20102212,
01201110,
20102212,
01201222,
20102212,
01201110,
20102212,
01201222,
20102212,
01201110,
20102212,
01201222,
20102212,
01203030,
11201210,
11201210,
11201210,
11201210,
11201212,
11201212,
11201212,
3344,
11111011,
01113040,
22222022,
02223040,
34003400,
34003400,
44444444,
33333300,
#GOGOSTART
10201112,
02020102,
02020102,
02021010,
10201112,
02020102,
02020102,
02020011,
10201112,
02020102,
02020102,
02021010,
10201112,
02020102,
02020104,
04040000,
#GOGOEND
11020202,
01020202,
01020202,
00201111,
00010102,
00010102,
00010102,
00201011,
20102212,
01201222,
20102212,
01201110,
20102212,
01201222,
20102212,
01201110,
20102212,
01201222,
20102212,
01201110,
20102212,
01201222,
20102212,
01111110,
#GOGOSTART
1110100011101000,
1110100011101000,
1110111011101110,
1222,
1110200011102000,
1110200011102000,
1110222011102000,
1110222011102000,
2220200020002220,
20202202,
1110100011101000,
1222,
500000000000000000000000000000000008000000000000,
500000000000000000000000000000000008000000000000,
1110222010002022,
20003300,
#GOGOEND
11221112,
02223040,
22112021,
01113040,
34003400,
34003400,
44444444,
33333300,
#GOGOSTART
10201112,
02020102,
02020102,
02021010,
10201112,
02020102,
02020102,
00201011,
10201112,
02020102,
02020102,
02021010,
10201112,
02020102,
02020104,
04043000,
#GOGOEND
11020202,
01020202,
01020202,
00203333,
00010102,
00010102,
00010102,
00204444,
#END

COURSE:Normal
LEVEL:6
BALLOON:4
SCOREINIT:490
SCOREDIFF:132
#START
10001011,
00101011,
00101011,
0110,
10001011,
00101011,
00101011,
0110,
10002011,
0022,
10001011,
0210,
10002011,
0022,
10001011,
0210,
10002011,
0022,
10001011,
0210,
10002011,
0022,
10001011,
0233,
1202,
1202,
1202,
1210,
1202,
1202,
1202,
3344,
5,
000000000008000000000000300000000000400000000000,
5,
000000000008000000000000300000000000400000000000,
43,
43,
4444,
3330,
#GOGOSTART
10001003,
00010003,
00010003,
0011,
20002004,
00020004,
00020004,
0022,
10001003,
00010003,
00010003,
0011,
20002004,
00020004,
00020004,
00030000,
#GOGOEND
10020202,
00020202,
00020202,
00200004,
00010101,
00010101,
00010101,
0110,
10002011,
0022,
10001011,
0210,
10002011,
0022,
10001011,
0210,
10002011,
0022,
10001011,
0210,
10002011,
0022,
10001011,
0708,
#GOGOSTART
1111,
1111,
5,
000000000000000000000000000008000000000000000000,
1122,
1122,
1110,
2220,
4404,
4,
1111,
1,
10010010,
20020020,
1111,
13,
#GOGOEND
5,
000000000008000000000000300000000000400000000000,
5,
000000000008000000000000300000000000400000000000,
43,
43,
4444,
3330,
#GOGOSTART
10001003,
00010003,
00010003,
0011,
20002004,
00020004,
00020004,
0022,
10001003,
00010003,
00010003,
0011,
20002004,
00020004,
00020004,
00030000,
#GOGOEND
10020202,
00020202,
00020202,
00200004,
00010101,
00010101,
00010101,
00103003,
#END

COURSE:Easy
LEVEL:4
BALLOON:3
SCOREINIT:450
SCOREDIFF:142
#START
11,
0110,
0110,
0110,
11,
0110,
0110,
0110,
11,
0022,
11,
,
11,
0022,
11,
,
11,
0022,
11,
,
11,
0022,
11,
03,
1100,
1100,
1100,
1110,
1100,
1100,
1100,
3,
5,
000008000000000000000000400000000000000000000000,
5,
000008000000000000000000300000000000000000000000,
43,
43,
6,
000000000000000000000008000000000000000000000000,
#GOGOSTART
10001003,
00000003,
00000003,
,
20002004,
00000004,
00000004,
,
10001003,
00000003,
00000003,
,
20002004,
00000004,
00000004,
00040000,
#GOGOEND
00020202,
00020202,
00020202,
,
00010101,
00010101,
00010101,
,
11,
0022,
11,
,
11,
0022,
11,
,
11,
0022,
11,
,
11,
0022,
11,
0708,
#GOGOSTART
11,
11,
5,
000000000000000000000000000008000000000000000000,
12,
12,
11,
22,
4004,
,
500000000000000000000000000000000000000000000008,
,
11,
22,
11,
1,
#GOGOEND
5,
000008000000000000000000400000000000000000000000,
5,
000008000000000000000000300000000000000000000000,
43,
43,
4444,
3330,
#GOGOSTART
10001003,
00000003,
00000003,
,
20002004,
00000004,
00000004,
,
10001003,
00000003,
00000003,
,
20002004,
00000004,
00000003,
03,
#GOGOEND
00040000,
00040000,
00040000,
,
00030000,
00030000,
00030000,
00003003,
,
,
#END
