9b6f05b420
I was making a bad assumption: 1. Songs with branches have the same number of balloons. 2. Each balloon has the same number of hits across branches. Because I was making these assumptions, I thought I could just repeat the `BALLOON:` field for each branch. **But this is wrong!!** Branches can have different numbers of balloons, and they can have different number of hits in their balloons. So, we need to **NOT** necessarily repeat `BALLOON:`, and instead use the written value of `BALLOON:` directly. This way we can get the different values for each branch. This fixes the parsing of Emma's Ura (and probably other songs). Also, this revealed a bug in my parsing of Roppon no Bara to Sai no Uta, so I needed to make sure we account for "duplicated" balloons too, and repeat the values _only when necessary_.
1527 lines
61 KiB
Plaintext
1527 lines
61 KiB
Plaintext
BPM:333
|
|
OFFSET:-1.612000023468295
|
|
|
|
COURSE:Edit
|
|
LEVEL:10
|
|
BALLOON:50,30,50,30,50,4,30
|
|
|
|
|
|
#START
|
|
#BARLINEOFF
|
|
#MEASURE 5/4
|
|
500000000000000000000000000000000000000000000008
|
|
00000000000,
|
|
#BARLINEON
|
|
#MEASURE 4/4
|
|
300000000000000000000000200000000000000000000000,
|
|
#BRANCHSTART r,10,16
|
|
#N
|
|
#BARLINEOFF
|
|
200000000000000000000000200000000000000000000000,
|
|
#BARLINEON
|
|
#MEASURE 8/4
|
|
200000000000000000000000000000000000200000000000
|
|
000000000000000000000000200000000000200000200000,
|
|
200000002000000020000000200000002000000020000000
|
|
200000002000000020000000200000002000000020000000,
|
|
100000000000200000200000200000000000200000200000
|
|
100000200000100000200000100000200000100000000000,
|
|
#GOGOSTART
|
|
400000000000100000400000000000100000400000000000
|
|
100000400000000000100000400000000000400000000000,
|
|
#GOGOEND
|
|
000000000000000000000000300000000000000000000000
|
|
000000000000000000000000200000200000200000200000,
|
|
100000000000000000000000000000000000100000100000
|
|
200000000000000000200000000000000000200000000000,
|
|
#GOGOSTART
|
|
300000000000000000300000000000000000300000000000
|
|
000000300000000000000000300000000000400000000000,
|
|
100000100000100000100000100000100000100000100000
|
|
100000100000100000100000100000100000100000100000,
|
|
#GOGOEND
|
|
300000000000000000000000200000000000000000000000
|
|
200000000000000000000000200000000000200000000000,
|
|
000000000000200000000000000000000000200000000000
|
|
000000000000200000000000000000000000000000000000,
|
|
#GOGOSTART
|
|
100000100000100000100000100000100000100000100000
|
|
200000100000100000100000100000100000200000100000,
|
|
100000100000100000100000100000100000100000100000
|
|
200000100000100000200000100000100000200000100000,
|
|
#GOGOEND
|
|
300000000000000000000000200000000000000000000000
|
|
200000000000000000000000200000000000200000000000,
|
|
000000000000200000000000000000000000200000000000
|
|
000000000000200000000000000000000000000000000000,
|
|
#GOGOSTART
|
|
100000000000000000000000100000000000100000000000
|
|
200000000000100000000000100000000000100000000000,
|
|
100000100000100000100000100000100000100000100000
|
|
200000100000200000100000200000100000200000200000,
|
|
#GOGOEND
|
|
100000100000200000000000100000100000200000100000
|
|
000000100000200000000000100000100000200000100000,
|
|
100000100000200000000000100000100000200000100000
|
|
000000100000200000000000100000200000200000200000,
|
|
100000100000200000000000100000100000200000100000
|
|
000000100000200000000000100000100000200000100000,
|
|
100000100000200000000000100000100000000000100000
|
|
200000200000200000200000100000100000100000100000,
|
|
100000000000400000200000000000100000200000000000
|
|
100000200000000000100000200000000000100000200000,
|
|
000000100000200000000000100000200000000000100000
|
|
200000000000100000100000200000200000200000200000,
|
|
100000000000100000100000200000000000200000200000
|
|
100000000000100000100000200000000000200000200000,
|
|
100000000000100000100000200000000000200000200000
|
|
100000100000100000100000200000200000200000200000,
|
|
#MEASURE 6/4
|
|
100000000000000000100000200000000000100000000000
|
|
000000100000200000000000,
|
|
#MEASURE 8/4
|
|
100000000000000000100000200000000000100000000000
|
|
100000100000200000000000100000000000200000200000,
|
|
#MEASURE 6/4
|
|
100000000000000000100000200000000000100000000000
|
|
000000100000200000000000,
|
|
#MEASURE 8/4
|
|
100000000000000000100000000000200000100000200000
|
|
100000000000200000200000100000100000200000200000,
|
|
#MEASURE 6/4
|
|
000000000000000000100000200000000000100000000000
|
|
000000001000000020000000,
|
|
#MEASURE 8/4
|
|
200000000000000020000000000000002000000000000000
|
|
200000000000000000200000100000100000200000000000,
|
|
#MEASURE 6/4
|
|
100000100000200000100000200000000000200000000000
|
|
100000100000200000100000,
|
|
#MEASURE 8/4
|
|
200000000000000000000000200000000000000000000000
|
|
100000000000000000100000200000000000100000000000,
|
|
300000000000000000100000200000000000100000100000
|
|
100000100000100000000000200000000000100000100000,
|
|
100000100000100000100000200000000000100000100000
|
|
200000000000100000000000200000100000100000100000,
|
|
100000000000100000100000200000000000100000100000
|
|
100000100000000000100000200000000000100000000000,
|
|
100000100000100000100000200000000000100000100000
|
|
200000100000100000100000200000000000100000100000,
|
|
300000000000100000000000200000000000100000100000
|
|
100000000000100000000000200000000000100000000000,
|
|
100000000000100000000000200000000000100000000000
|
|
200000000000100000100000200000000000100000000000,
|
|
100000100000100000100000100000100000100000100000
|
|
200000100000100000100000100000100000100000100000,
|
|
500000000000000000000000000000000000000008000000
|
|
600000000000000000000000000000000000000008000000,
|
|
#MEASURE 4/4
|
|
#BPMCHANGE 166.5
|
|
#SCROLL 0.75
|
|
100000000000000000000000200000000000200000000000,
|
|
200000000000200000200000100000000200000200200000,
|
|
100000100100200000200000100000000000200000200200,
|
|
100000001000100010000000200000001000100010001000
|
|
2000200020002000,
|
|
100000100000200000000000200000100200100200100000,
|
|
100000000200200000200200100000000000100100200000,
|
|
100020002000200020002000100000000000200000100200,
|
|
100000002000200020002000200000001000000010001000
|
|
2000200020002000,
|
|
#MEASURE 8/4
|
|
#BPMCHANGE 333
|
|
#SCROLL 0.5
|
|
100000000000000000000000200000000000100000000000
|
|
200000000000000000000000100000000000100000000000,
|
|
000000000000100000000000200000000000000000100000
|
|
200000000000000000000000000000000000200000000000,
|
|
000000000000000000000000200000000000000000100000
|
|
200000000000100000000000000000000000000000000000,
|
|
100000000000000000100000200000000000100000100000
|
|
200000000000000000000000200000000000100000100000,
|
|
#SCROLL 0.53
|
|
100000000000000000000000200000000000100000000000
|
|
200000000000000000000000100000000000100000100000,
|
|
#SCROLL 0.58
|
|
100000000000000000000000200000000000100000000000
|
|
200000000000000000000000100000000000200000000000,
|
|
#SCROLL 0.63
|
|
100000000000100000000000200000000000100000000000
|
|
200000000000100000000000100000100000200000000000,
|
|
#SCROLL 0.68
|
|
100000100000100000200000100000000000200000000000
|
|
100000100000100000200000100000000000200000000000,
|
|
#SCROLL 0.75
|
|
700000000000000000000000000000000000000000000000
|
|
000000000000000000000000000000000000000000000000,
|
|
000000000000000000000000000000000000000000000000
|
|
000000000000000000000000000000000000000000000000,
|
|
000000000000000000000000000000000000000000000000
|
|
000000000000000000000000000000000000000000000000,
|
|
#SCROLL 1
|
|
800000000000000000000000200000000000000000000000
|
|
200000000000100010001000400000000000000000000000,
|
|
#GOGOSTART
|
|
300000000000000000200000100000000000200000000000
|
|
200000200000100000100000200000100000200000000000,
|
|
100000100000200000200000100000100000200000200000
|
|
100000000000200000100000200000100000200000000000,
|
|
100000000000000000200000100000000000200000000000
|
|
200000000000000000200000100000000000200000000000,
|
|
200000000000100010001000200000000000100000000000
|
|
200000100000100000100000200000000000000000000000,
|
|
500000000000000000000000000000000000000000000008
|
|
000000000000000000000000200000100000200000000000,
|
|
200000100000100000200000100000100000200000100000
|
|
200000000000200000000000200000200000100000100000,
|
|
200000000000100000200000100000100000200000000000
|
|
100000100000200000200000200000100000100000100000,
|
|
200000000000100000100000200000200000100000100000
|
|
200000200000200000200000100000100000100000100000,
|
|
#GOGOEND
|
|
200000000000000000200000000000000000200000000000
|
|
300000000000200000300000200000000000300000000000,
|
|
200000200000200000200000
|
|
#GOGOSTART
|
|
100000100000200000200000
|
|
100000000000200000100000200000100000200000000000,
|
|
100000000000000000400000000000000000100000000000
|
|
200000000000100000400000000000000000100000000000,
|
|
200000000000100010001000200000000000100000000000
|
|
200000100000100000100000200000000000100000000000,
|
|
500000000000000000000000000000000000000000000000
|
|
000000000000000000000000000000000000000000000008,
|
|
000000000000000000000000200000000000100000100000
|
|
200000000000100000100000200000000000100000000000,
|
|
100000100000100000200000100000000000200000200000
|
|
100000100000100000200000100000000000200000200000,
|
|
100000100000200000200000100000000200000000200000
|
|
100000100000200000200000100000100000100000100000,
|
|
200000000000000000000000200000000000000000000000
|
|
400000000000000000100000400000000000100000000000,
|
|
200000200000100000100000200000200000100000100000
|
|
200000100000200000100000200000100000200000100000,
|
|
#GOGOEND
|
|
700000000000000000000000000000000000000000000000
|
|
000000000000000000000000000000000000000000000000,
|
|
000000000000000000000000000000000000000000000008
|
|
000000000000000000000000200000000000200000200000,
|
|
200000002000000020000000200000002000000020000000
|
|
200000002000000020000000200000002000000020000000,
|
|
100000000000200000200000200000000000200000200000
|
|
100000200000100000200000100000200000100000000000,
|
|
#GOGOSTART
|
|
200000000000100000100000100000100000200000000000
|
|
100000100000100000100000100000100000200000000000,
|
|
100000100000200000100000100000200000100000100000
|
|
200000100000200000100000200000100000200000200000,
|
|
#GOGOEND
|
|
100000000000000000000000000000000000000000000000
|
|
000000000000000000000000000000000000000000000000,
|
|
000000000000000000000000000000000000000000000000
|
|
000000000000000000000000000000000000000000000000,
|
|
000000000000000000000000000000000000000000000000
|
|
000000000000000000000000000000000000000000000000,
|
|
000000000000000000000000000000000000000000000000
|
|
000000000000000000000000000000000000000000000000,
|
|
#MEASURE 4/4
|
|
000000000000000000000000000000000000000000000000,
|
|
#E
|
|
#BARLINEOFF
|
|
200000000000000000000000200000000000000000000000,
|
|
#BARLINEON
|
|
#MEASURE 8/4
|
|
200000000000000000000000000000000000200000000000
|
|
000000000000000000000000200000200000200000200000,
|
|
200000002000000020000000200000002000000020000000
|
|
200000002000000020000000200000002000000020000000,
|
|
100000200000200000200000200000200000200000200000
|
|
100000200000100000200000100000200000100100100000,
|
|
#GOGOSTART
|
|
400000000000100000400000000000100000400000200000
|
|
100000400000200000100000400000000000400000000000,
|
|
#GOGOEND
|
|
000000000000200000200000300000200000200000200000
|
|
100000100000100000100000200000200000200000200000,
|
|
100000000000000000000000000000000000100000100000
|
|
200000000000000000200000000000000000200000000000,
|
|
#GOGOSTART
|
|
300000000000000000300000000000000000300000000000
|
|
000000300000000000000000300000000000400000000000,
|
|
100000100000100000200000100000100000200000100000
|
|
100000200000100000100000200000100000100100100100,
|
|
#GOGOEND
|
|
100000000000000000000000200000000000000000000000
|
|
200000000000000000000000200000000000200000000000,
|
|
000000000000200000000000000000000000200000000000
|
|
000000000000200000000000000000000000000000000000,
|
|
#GOGOSTART
|
|
100000100000100000100000100000100000100000100000
|
|
200000100000100000100000100000100000100100100000,
|
|
100000100000100000100000100000100000100000100000
|
|
200000100000100000200000100000100000100100100000,
|
|
#GOGOEND
|
|
300000000000000000000000200000000000000000000000
|
|
200000000000000000000000200000000000200000000000,
|
|
000000000000200000000000000000000000200000000000
|
|
000000000000200000000000000000000000000000000000,
|
|
#GOGOSTART
|
|
100000000000000000000000100000000000100000000000
|
|
200000000000100000000000100000000000100000000000,
|
|
100000100000100000100000100000100000100000100000
|
|
200000100000200000100000100100100000100100100000,
|
|
#GOGOEND
|
|
100000100000200000200000100000100000200000100000
|
|
100000100000200000200000100000100000200000100000,
|
|
100000100000200000200000100000100000200000100000
|
|
100000100000200000200000100000200000200000100000,
|
|
100000100000200000200000100000100000200000100000
|
|
100000100000200000200000100000100000200000100000,
|
|
100000100000200000200000100000100000200000100000
|
|
200000100000200000100000200000100000200000200000,
|
|
100000000000400000200000100000100000200000100000
|
|
100000200000100000100000200000100000100000200000,
|
|
100000100000200000100000100000200000100000100000
|
|
200000100000200000200000100000100000200000200000,
|
|
100000100000100000100000200000200000200000200000
|
|
100000100000100000100000200000200000200000200000,
|
|
100000100000200000200000100000100000200000200000
|
|
100100100000100000100000100100100000100000100000,
|
|
#MEASURE 6/4
|
|
100000000000000000100000200000000000100000000000
|
|
200000100000200000000000,
|
|
#MEASURE 8/4
|
|
100000000000000000100000200000000000100000000000
|
|
100000100000200000000000100000000000100100100000,
|
|
#MEASURE 6/4
|
|
100000000000000000100000200000000000100000000000
|
|
200000100000200000000000,
|
|
#MEASURE 8/4
|
|
100000000000000000100000000000200000100000200000
|
|
100000000000200000100000200000200000100000200000,
|
|
#MEASURE 6/4
|
|
000000000000000000100100200000000000100000000000
|
|
000000001000000020000000,
|
|
#MEASURE 8/4
|
|
200000000000000020000000000000002000000000000000
|
|
200000000000000000200000100000100000200000200000,
|
|
#MEASURE 6/4
|
|
100000100000200000100000200000000000200000100000
|
|
100000100000200000100000,
|
|
#MEASURE 8/4
|
|
200000000000000000000000200000000000000000000000
|
|
100000000000000000100000200000000000100000000000,
|
|
300000000000000000100000200000000000100000100000
|
|
100000100000100000000000200000000000100000100000,
|
|
100000100000100000100000200000000000100000100000
|
|
200000100000100000000000200000100000100000100000,
|
|
100000000000100000100000200000000000100000100000
|
|
100000100000100000100000200000000000100000100000,
|
|
100000100000100000100000200000100000100000100000
|
|
200000100000100000100000200000100000100000100000,
|
|
300000000000100000100000200000000000100000100000
|
|
100000000000100000100000200000000000100000100000,
|
|
100000000000100000000000200000100000100000000000
|
|
200000100000100000100000200000000000100000000000,
|
|
100000100000100000100000100000100000100000100000
|
|
200000100000100000100000100000100000100000100000,
|
|
500000000000000000000000000000000000000008000000
|
|
600000000000000000000000000000000000000008000000,
|
|
#MEASURE 4/4
|
|
#BPMCHANGE 166.5
|
|
#SCROLL 0.75
|
|
100000000000000000000000202000000000202000000000,
|
|
202000000000202000202000100000000200000200200000,
|
|
100000100100200000200000100000200000101010101010,
|
|
100000002000200010002000200000001000200020002000
|
|
1010100020002000,
|
|
100000100000202000000000202000100200100200100000,
|
|
100000000200100200200200100000100000200200100200,
|
|
100020002000200020202000100000000000202000100200,
|
|
100000002000200020001000200020001000000010001000
|
|
1010100010001000,
|
|
#MEASURE 8/4
|
|
#BPMCHANGE 333
|
|
#SCROLL 0.5
|
|
100000000000000000000000200000000000100000100000
|
|
200000000000000000000000100000000000100000100000,
|
|
000000000000100000000000200000100000000000100000
|
|
200000000000000000100000000000000000200000200000,
|
|
000000000000000000000000200000000000000000100000
|
|
200000000000100000000000000000000000000000000000,
|
|
100000000000000000100000200000000000100000100000
|
|
200000100000000000200000200000000000100100100000,
|
|
#SCROLL 0.53
|
|
100000000000000000000000200000000000100000100000
|
|
200000000000000000000000100000000000100000100000,
|
|
#SCROLL 0.58
|
|
100000000000000000000000200000000000100000100000
|
|
200000000000100000100000100000000000200000000000,
|
|
#SCROLL 0.63
|
|
100000000000100000000000200000000000100000100000
|
|
200000000000100000000000100000100000200000200000,
|
|
#SCROLL 0.68
|
|
100100100000100000200000100000100000200000200000
|
|
100100100000100000200000100000100000200000200000,
|
|
#SCROLL 0.75
|
|
700000000000000000000000000000000000000000000000
|
|
000000000000000000000000000000000000000000000000,
|
|
000000000000000000000000000000000000000000000000
|
|
000000000000000000000000000000000000000000000000,
|
|
000000000000000000000000000000000000000000000000
|
|
000000000000000000000000000000000000000000000000,
|
|
#SCROLL 1
|
|
800000000000000000000200200000000000000000000000
|
|
200000000000100100100000400000000000000000000000,
|
|
#GOGOSTART
|
|
300000000000000000200000100000000000200000100000
|
|
200000200000100000100000200000100000200000000000,
|
|
100000100000100000200000100000100000200000200000
|
|
100100100000200000100000200000100000200000200000,
|
|
100000000000000000200000100000000000200000000000
|
|
200000100000100000200000100000000000200000000000,
|
|
200000000000100100100000200000000000100000100000
|
|
200000100000100000100000200000100000100000100000,
|
|
500000000000000000000000000000000000000000000008
|
|
000000000000100000100000200000100000200000000000,
|
|
200000100000100000200000100000100000200010001000
|
|
200000100000200000100000200000200000200000100000,
|
|
200000000000100000200000100000100000200000000000
|
|
100000100000200000200000200010001000100010001000,
|
|
200000000000100010001000200020002000100010001000
|
|
200020002000200020002000100010001000100010001000,
|
|
#GOGOEND
|
|
200000000000000000200000000000000000200000000000
|
|
300000000000200000300000200000000000300000000000,
|
|
200000200000200000200000
|
|
#GOGOSTART
|
|
300000100000200000200000
|
|
100100100000200000100000200000100000200000200000,
|
|
100000000000000000400000000000000000100000000000
|
|
200000000000100000400000000000000000100000000000,
|
|
200000000000100100100000200000000000100000000000
|
|
200000100000100000100000200000100000100000100000,
|
|
500000000000000000000000000000000000000000000000
|
|
000000000000000000000000000000000000000000000008,
|
|
000000000000000000000000200000000000100000100000
|
|
200000000000100100100000200000000000100000000000,
|
|
100100100000100000200000100000100000200000200000
|
|
100100100000100000200000100000100000200000200000,
|
|
100100100000200000200000100000000200000000200000
|
|
100100100000200000200000100000100000100000100000,
|
|
200000000000000000000000200000000000000000000000
|
|
400000000000000000100000400000000000100000000000,
|
|
200100100000100000100000200100100000100000100000
|
|
200100100000200000100000200100100000200000100000,
|
|
#GOGOEND
|
|
700000000000000000000000000000000000000000000000
|
|
000000000000000000000000000000000000000000000000,
|
|
000000000000000000000000000000000000000000000008
|
|
000000000000000000000000200000200000200000200000,
|
|
200000002000000020000000200000002000000020000000
|
|
200000002000000020000000200000002000000020000000,
|
|
100000200000200000200000200000200000200000200000
|
|
100000200000100000200000100000200000100000100000,
|
|
#GOGOSTART
|
|
200000100000100000100000100000100000200000100000
|
|
100000100000100000100000100000100000200000100000,
|
|
100000100000200000100000100000200000100000100000
|
|
200000100000200000100000200100100000200100100100,
|
|
#GOGOEND
|
|
100000000000000000000000000000000000000000000000
|
|
000000000000000000000000000000000000000000000000,
|
|
000000000000000000000000000000000000000000000000
|
|
000000000000000000000000000000000000000000000000,
|
|
000000000000000000000000000000000000000000000000
|
|
000000000000000000000000000000000000000000000000,
|
|
000000000000000000000000000000000000000000000000
|
|
000000000000000000000000000000000000000000000000,
|
|
#MEASURE 4/4
|
|
000000000000000000000000000000000000000000000000,
|
|
#M
|
|
#BARLINEOFF
|
|
200000000000000000000000200000000000000000000000,
|
|
#BARLINEON
|
|
#MEASURE 8/4
|
|
200000000000000000000000000000000200200000000000
|
|
000000000000000000000000200000200000200000200000,
|
|
200000002000000020000000200000002000000020000000
|
|
200000002000000020000000200000002000000020000000,
|
|
100000200000200000200000200000200000200000200000
|
|
100000200000100000200000100000200000100100100100,
|
|
#GOGOSTART
|
|
200000000000100000200000000000100100200000200000
|
|
100100200000200000100100200000000000400000000000,
|
|
#GOGOEND
|
|
000000000000200000200000300020002000200020002000
|
|
100010001000100010001000200020002000200020002000,
|
|
100000000000000000000000000000000000100000100000
|
|
200000000000000000200000000000000000200000000000,
|
|
#GOGOSTART
|
|
300000000000000000300000000000000000300000000000
|
|
000000300000000000000000300000000000400000000000,
|
|
100000100000100000100100100000100000100100100000
|
|
100000100100100000100000100100100100100100100100,
|
|
#GOGOEND
|
|
100000000000000000000000200000000000000000000000
|
|
200000000000000000002000200000000000200000000000,
|
|
000000000000200000000000000000000000200000000000
|
|
000000000000200000000000000000000000000000000000,
|
|
#GOGOSTART
|
|
100000100000100000100000100000100000100000100000
|
|
200000100000100000100000100000100000100100100100,
|
|
100000100000100000100000100000100000100000100000
|
|
200100100000100000100100100000100000100100100100,
|
|
#GOGOEND
|
|
100000000000000000000000200000000000000000000000
|
|
200000000000000000002000200000000000200000000000,
|
|
000000000000200000000000000000000000200000000000
|
|
000000000000200000000000000000000000000000000000,
|
|
#GOGOSTART
|
|
100000000000000000000000100000000000100000000000
|
|
200000000000100000000000100000000000100000000000,
|
|
100000100000100000100000100000100000100000100000
|
|
200100100000100100100000100100100100100100100100,
|
|
#GOGOEND
|
|
100000100000200000200000100000100000200000100000
|
|
100000100000200000200000100000100000200000100100,
|
|
100000100000200000200000100000100000200000100000
|
|
100000100000200000100000100000100100200000100000,
|
|
100000100000200000200000100000100000200000100000
|
|
100000100000200000200000100000100000200000100100,
|
|
100000100000200000200000100000100000200000100000
|
|
100000100000200000100000200000100000200100100100,
|
|
100000000000400000200000100000100000200000100000
|
|
100000200000100100100000200000100000100000200100,
|
|
100000100000200000100000100000200000100000100000
|
|
200100100000200000200000100000100100200000200000,
|
|
100100100000100000100000200100100000100000100000
|
|
100100100000100000100000200100100000100000100000,
|
|
100100100000200000100000100100100000200000100000
|
|
100100100100100100100100200100100100100100100100,
|
|
#MEASURE 6/4
|
|
100000000000000000100000200000000000100000000000
|
|
200000100000200000000000,
|
|
#MEASURE 8/4
|
|
100000000000000000100000200000000000100000000000
|
|
100100100100200000000000100000000000100100100100,
|
|
#MEASURE 6/4
|
|
100000000000000000100000200000000000100000000000
|
|
200000100000200000000000,
|
|
#MEASURE 8/4
|
|
100000000000000000100000000000200000100000200000
|
|
100000000000200000100000200000200000100000200000,
|
|
#MEASURE 6/4
|
|
000000000000000000100100200000000000100000000000
|
|
000000001000000020000000,
|
|
#MEASURE 8/4
|
|
200000000000000020000000000000002000000000000000
|
|
200000000000000000200100100100100000200000200000,
|
|
#MEASURE 6/4
|
|
100000100000200000100000200000000000200100100100
|
|
100000100000200000100000,
|
|
#MEASURE 8/4
|
|
200000000000000000000000200000000000000000000000
|
|
100000000000000000100000200000000000100000000000,
|
|
300000000000000000100000200000000000100100100000
|
|
100000100000100000000000200000000000100000100000,
|
|
100000100000100000100000200000000000100000100000
|
|
200100100000100000000000200000100000100000100000,
|
|
100000000000100000100000200000000000100100100000
|
|
100000100000100000100000200000000000100000100000,
|
|
100000100000100000100000200000100000100000100000
|
|
200100100000100000100000200000100000100000100000,
|
|
300000000000100000100000200000000000100100100000
|
|
100000000000100000100000200000000000100000100000,
|
|
100000000000100000000000200000100000100000000000
|
|
200100100000100000100000200000000000100000000000,
|
|
100000100000100000100000100000100000100000100000
|
|
200000100000100000100000100000100000100000100000,
|
|
500000000000000000000000000000000000000008000000
|
|
600000000000000000000000000000000000000008000000,
|
|
#MEASURE 4/4
|
|
#BPMCHANGE 166.5
|
|
#SCROLL 0.75
|
|
100000000000000000000000202000000000202000000000,
|
|
202000000000202000202000100000000200000100200000,
|
|
100000100100200000200000100000202020202020101010,
|
|
100000002000100010002000200000001000200020002000
|
|
1010101020002000,
|
|
100000100000202000000000202000100200100200100000,
|
|
100000000200100200200200100000101010200200100200,
|
|
100020002000200020202000100000000000202000100200,
|
|
100000002000200020001000200020001000000010001000
|
|
1010100010001000,
|
|
#MEASURE 8/4
|
|
#BPMCHANGE 333
|
|
#SCROLL 0.5
|
|
100000000000000000000000200000000000100000100100
|
|
200000000000000000000000100000000000100000100000,
|
|
000000000000100000000000200000100000000000100100
|
|
200000000000000000100000000000000000200000200000,
|
|
000000000000000000000000200000000000000000100100
|
|
200000000000100000000000000000000000000000000000,
|
|
100000000000000000100000200000000000100000100100
|
|
200000100000000000200000200000000000100100100100,
|
|
#SCROLL 0.53
|
|
100000000000000000000000200000000000100000100100
|
|
200000000000000000000000100000000000100000100000,
|
|
#SCROLL 0.58
|
|
100000000000000000000000200000000000100000100100
|
|
200000000000100000100000100000000000200000000000,
|
|
#SCROLL 0.63
|
|
100000000000100000000000200000000000100000100100
|
|
200000000000100000000000100000100000200000200000,
|
|
#SCROLL 0.68
|
|
100100100000100000200000100100100000200000200000
|
|
100100100000100000200000100100100000200000200000,
|
|
#SCROLL 0.75
|
|
700000000000000000000000000000000000000000000000
|
|
000000000000000000000000000000000000000000000000,
|
|
000000000000000000000000000000000000000000000000
|
|
000000000000000000000000000000000000000000000000,
|
|
000000000000000000000000000000000000000000000000
|
|
000000000000000000000000000000000000000000000000,
|
|
#SCROLL 1
|
|
800000000000000000000200200000000000000000000000
|
|
200000000000100100100100200000000000000000000000,
|
|
#GOGOSTART
|
|
300000000000000000200000100000000000200000100000
|
|
200000200000100100100000200000100000200000000000,
|
|
100000100000100000200000100000100000200000200000
|
|
100100100000200000100000200000100000200000200000,
|
|
100000000000000000200000100000000000200000000000
|
|
200000100000100100200000100000000000200000000000,
|
|
200000000000100100100100200000000000100000100000
|
|
200000100000100100100000200000100000100000100000,
|
|
700000000000000000800000200200200200100100100100
|
|
100000000000100000100000200000100000200000100000,
|
|
200000100000100000200000100000100000200100100100
|
|
200000100000200000100000200000200000200000100000,
|
|
200000000000100000200000100000100000200000000000
|
|
100000100000200000200000200010001000100010001000,
|
|
200000000000200010001000200020002000100010001000
|
|
200020002000200020002000100100100100100100100100,
|
|
#GOGOEND
|
|
200000000000000000200000000000000000200000000000
|
|
300000000000200000300000200000000000300000000000,
|
|
200000200000200000200200
|
|
#GOGOSTART
|
|
100000100000200000200000
|
|
100100100000200000100000200000100000200000200000,
|
|
100000000000000000400000000000000000100000000000
|
|
200000000000100000400000000000000000100000000000,
|
|
200000100000100100100100200000100000100000100000
|
|
200100100000100100100000200100100100100100100100,
|
|
500000000000000000000000000000000000000000000000
|
|
000000000000000000000000000000000000000000000008,
|
|
000000000000000000000000200000000000100000100000
|
|
200000000000100100100000200000000000100000000000,
|
|
100100100000200000200000100000100100200000200000
|
|
100100100000200000200000100000100100200000200000,
|
|
100100100000200000200000100000100200000100200000
|
|
100100100100200000200000100100100000100100100100,
|
|
200000000000000000000000200000000000000000000000
|
|
400000000000000000100000400000000000100000000000,
|
|
200100100100100100100100200100100100100100100100
|
|
200100100100200100100100200100100100200100100100,
|
|
#GOGOEND
|
|
700000000000000000000000000000000000000000000000
|
|
000000000000000000000000000000000000000000000000,
|
|
000000000000000000000000000000000000000000000008
|
|
000000000000000000000000200000200000200000200000,
|
|
200000002000000020000000200000002000000020000000
|
|
200000002000000020000000200000002000000020000000,
|
|
100000200000200000200000200000200000200000200000
|
|
100000200000100000200000100000200000100000100000,
|
|
#GOGOSTART
|
|
200100100000100000100100100000100000200100100000
|
|
100000100100100000100000100100100000200000100000,
|
|
100100100000200000100100100000200000100100100000
|
|
200100100100200100100100200100200100200100200100,
|
|
#GOGOEND
|
|
100000000000000000000000000000000000000000000000
|
|
000000000000000000000000000000000000000000000000,
|
|
000000000000000000000000000000000000000000000000
|
|
000000000000000000000000000000000000000000000000,
|
|
000000000000000000000000000000000000000000000000
|
|
000000000000000000000000000000000000000000000000,
|
|
000000000000000000000000000000000000000000000000
|
|
000000000000000000000000000000000000000000000000,
|
|
#MEASURE 4/4
|
|
000000000000000000000000000000000000000000000000,
|
|
#END
|
|
|
|
COURSE:Oni
|
|
LEVEL:7
|
|
BALLOON:24
|
|
|
|
|
|
#START
|
|
#BARLINEOFF
|
|
#MEASURE 5/4
|
|
#SCROLL 0.5
|
|
000000000000000000000000000000000000000000000000
|
|
000000000000,
|
|
#BARLINEON
|
|
#MEASURE 8/4
|
|
300000000000000000000000200000000000000000000000
|
|
200000000000000000000000200000000000000000000000,
|
|
200000000000000000000000000000000000200000000000
|
|
000000000000000000000000000000000000000000000000,
|
|
200000000000000000000000000000000000000000000000
|
|
000000000000000000000000000000000000000000000000,
|
|
200000000000000000000000200000000000000000000000
|
|
200000000000200000000000200000000000200000000000,
|
|
#GOGOSTART
|
|
300000000000000000300000000000000000300000000000
|
|
000000300000000000000000300000000000300000000000,
|
|
#GOGOEND
|
|
000000000000000000000000300000000000000000000000
|
|
000000000000000000000000000000000000000000000000,
|
|
100000000000000000000000000000000000200000200000
|
|
200000000000000000200000000000000000200000000000,
|
|
#GOGOSTART
|
|
300000000000000000300000000000000000300000000000
|
|
000000300000000000000000300000000000300000000000,
|
|
600000000000000000000000000000000000000000000000
|
|
000000000000000000000000000000000008000000000000,
|
|
#GOGOEND
|
|
300000000000000000000000000000000000000000000000
|
|
000000000000000000000000000000000000000000000000,
|
|
000000000000000000000000000000000000000000000000
|
|
000000000000000000000000000000000000000000000000,
|
|
#GOGOSTART
|
|
100000000000100000000000100000000000100000000000
|
|
100000100000100000000000100000000000100000000000,
|
|
100000100000100000000000100000100000100000000000
|
|
100000100000100000100000100000100000100000000000,
|
|
#GOGOEND
|
|
300000000000000000000000000000000000000000000000
|
|
000000000000000000000000000000000000000000000000,
|
|
000000000000000000000000000000000000000000000000
|
|
000000000000000000000000000000000000000000000000,
|
|
#GOGOSTART
|
|
200000000000200000000000200000000000200000000000
|
|
200000200000200000000000200000000000200000000000,
|
|
200000200000200000000000200000200000200000000000
|
|
200000200000200000200000200000200000200000000000,
|
|
#GOGOEND
|
|
100000100000100000000000100000100000100000000000
|
|
100000000000100000100000100000000000000000000000,
|
|
100000100000100000000000100000100000100000000000
|
|
100000000000100000000000100000100000100000000000,
|
|
100000100000100000000000100000100000100000000000
|
|
100000000000100000100000100000000000000000000000,
|
|
100000100000100000000000100000100000100000000000
|
|
200000200000200000200000200000000000200000000000,
|
|
100000000000000000100000000000000000100000000000
|
|
000000100000000000000000100000000000000000100000,
|
|
000000000000100000000000000000100000000000000000
|
|
100000000000200000200000200000200000200000000000,
|
|
100000000000100000100000100000000000000000000000
|
|
200000000000100000100000200000000000000000000000,
|
|
100000000000100000100000200000000000100000100000
|
|
100000000000100000100000200000000000000000000000,
|
|
#MEASURE 6/4
|
|
300000000000000000000000100000000000100000000000
|
|
000000000000100000000000,
|
|
#MEASURE 8/4
|
|
200000000000000000000000200000000000200000000000
|
|
000000000000200000000000200000000000100000100000,
|
|
#MEASURE 6/4
|
|
100000000000000000000000100000000000100000000000
|
|
000000000000100000000000,
|
|
#MEASURE 8/4
|
|
200000000000000000200000000000000000200000200000
|
|
100000000000000000200000000000000000200000000000,
|
|
#MEASURE 6/4
|
|
100000000000000000000000100000000000100000000000
|
|
000000002000000020000000,
|
|
#MEASURE 8/4
|
|
200000000000000020000000000000002000000000000000
|
|
200000000000000000100000000000000000200000000000,
|
|
#MEASURE 6/4
|
|
100000100000100000000000200000000000100000100000
|
|
100000000000200000000000,
|
|
#MEASURE 8/4
|
|
200000000000000000000000200000000000000000000000
|
|
100000000000000000000000200000000000000000000000,
|
|
300000000000000000000000200000000000100000000000
|
|
100000100000100000000000200000000000100000000000,
|
|
100000100000100000000000200000000000100000000000
|
|
200000000000100000100000200000000000100000000000,
|
|
100000000000000000000000200000000000100000000000
|
|
100000100000100000000000200000000000100000000000,
|
|
100000100000100000000000200000000000100000000000
|
|
200000000000100000100000200000000000200000000000,
|
|
100000000000000000000000200000000000100000000000
|
|
100000100000100000000000200000000000100000000000,
|
|
100000100000100000000000200000000000100000000000
|
|
200000000000100000100000200000000000000000000000,
|
|
100000100000100000100000100000000000100000000000
|
|
100000100000100000100000100000000000100000000000,
|
|
200000200000200000200000200000000000200000000000
|
|
200000200000200000200000200000000000000000000000,
|
|
#MEASURE 4/4
|
|
#BPMCHANGE 166.5001678466796875
|
|
#SCROLL 0.75
|
|
300000000000000000000000200000000000200000000000,
|
|
100000000000100000100000200000000000200200200000,
|
|
100000000000100000100000200000000000100100100000,
|
|
100000000000000010000000000000002000200020002000
|
|
2000000020000000,
|
|
100000000000100000000000200000000000200200200000,
|
|
100000000000100100100000200000000000200200200000,
|
|
100000100100100000100000200000000000100100100000,
|
|
100000000000000010000000000000002000200020002000
|
|
2000000020000000,
|
|
#MEASURE 8/4
|
|
#BPMCHANGE 333.000335693359375
|
|
#SCROLL 0.5
|
|
100000100000100000000000100000100000100000000000
|
|
100000000000100000100000100000000000100000000000,
|
|
000000000000100000000000100000100000100000000000
|
|
100000000000100000100000200000000000000000000000,
|
|
100000100000100000000000100000100000100000000000
|
|
100000000000100000100000100000000000000000000000,
|
|
100000100000100000000000100000100000100000000000
|
|
200000200000200000200000200000000000000000000000,
|
|
100000100000100000000000100000100000100000000000
|
|
100000000000100000100000100000000000100000000000,
|
|
000000000000100000000000100000100000100000000000
|
|
100000000000100000100000200000000000000000000000,
|
|
100000100000100000000000100000100000100000000000
|
|
100000000000200000200000200000000000200000000000,
|
|
500000000000000000000000000000000000000000000000
|
|
000000000000000000000000000000000008000000000000,
|
|
300000000000000000000000000000000000000000000000
|
|
000000000000000000000000000000000000000000000000,
|
|
000000000000000000000000000000000000000000000000
|
|
000000000000000000000000000000000000000000000000,
|
|
000000000000000000000000000000000000000000000000
|
|
000000000000000000000000000000000000000000000000,
|
|
000000000000000000000000400000000000000000000000
|
|
400000000000000000000000400000000000000000000000,
|
|
#GOGOSTART
|
|
300000000000000000100000000000000000200000000000
|
|
100000100000100000000000200000000000200000000000,
|
|
100000100000100000000000200000200000200000000000
|
|
100000000000200000200000100000000000200000000000,
|
|
100000000000000000100000000000000000100000000000
|
|
200000000000000000200000000000000000200000000000,
|
|
100000000000100000100000100000000000000000000000
|
|
200000200000100000000000200000000000000000000000,
|
|
300000000000000000000000200000200000200000200000
|
|
100000000000000000000000100000100000100000100000,
|
|
100000000000000000100000000000000000100000100000
|
|
200000000000200000000000200000200000200000000000,
|
|
100000000000000000100000000000000000200000000000
|
|
100000000000100000100000100000100000100000000000,
|
|
200000000000100000100000200000000000100000000000
|
|
200000200000100000000000200000000000000000000000,
|
|
#GOGOEND
|
|
300000000000000000200000000000000000200000000000
|
|
300000000000200000000000200000000000200000000000,
|
|
200000200000200000000000
|
|
#GOGOSTART
|
|
300000000000000000000000
|
|
100000000000200000200000100000000000200000000000,
|
|
100000000000000000300000000000000000100000000000
|
|
200000000000000000400000000000000000200000000000,
|
|
100000000000100000100000100000000000000000000000
|
|
200000200000100000000000200000000000000000000000,
|
|
300000000000000000000000100000100000100000000000
|
|
200000000000200000000000100000100000100000100000,
|
|
100000000000100000100000200000000000100000100000
|
|
100000000000100000100000200000000000000000000000,
|
|
100000000000200000000000100000100000200000000000
|
|
100000000000200000200000100000000000200000000000,
|
|
100000100000100000100000200000000000200000000000
|
|
100000100000100000100000200000000000000000000000,
|
|
300000000000000000000000300000000000000000000000
|
|
400000000000000000000000400000000000000000000000,
|
|
600000000000000000000000000000000000000000000000
|
|
000000000000000000000000000000000008000000000000,
|
|
#GOGOEND
|
|
700000000000000000000000000000000000000000000000
|
|
000000000000000000000000000000000000000000000000,
|
|
000000000000000000000000000000000000000000000008
|
|
000000000000000000000000000000000000000000000000,
|
|
200000000000000000000000000000000000000000000000
|
|
000000000000000000000000000000000000000000000000,
|
|
200000000000000000000000200000000000000000000000
|
|
200000000000200000000000200000000000200000000000,
|
|
#GOGOSTART
|
|
100000000000000000000000000000000000100000000000
|
|
000000000000000000000000000000000000100000000000,
|
|
000000000000100000000000100000100000100000000000
|
|
100000100000100000000000100000100000100000100000,
|
|
#GOGOEND
|
|
100000000000000000000000000000000000000000000000
|
|
000000000000000000000000000000000000000000000000,
|
|
000000000000000000000000000000000000000000000000
|
|
000000000000000000000000000000000000000000000000,
|
|
000000000000000000000000000000000000000000000000
|
|
000000000000000000000000000000000000000000000000,
|
|
000000000000000000000000000000000000000000000000
|
|
000000000000000000000000000000000000000000000000,
|
|
#MEASURE 4/4
|
|
000000000000000000000000000000000000000000000000,
|
|
#END
|
|
|
|
COURSE:Hard
|
|
LEVEL:5
|
|
BALLOON:21,9,18,21,21
|
|
|
|
|
|
#START
|
|
#BARLINEOFF
|
|
#MEASURE 5/4
|
|
#SCROLL 0.5
|
|
000000000000000000000000000000000000000000000000
|
|
000000000000,
|
|
#BARLINEON
|
|
#MEASURE 8/4
|
|
300000000000000000000000000000000000000000000000
|
|
000000000000000000000000000000000000000000000000,
|
|
000000000000000000000000000000000000000000000000
|
|
000000000000000000000000000000000000000000000000,
|
|
200000000000000000000000000000000000000000000000
|
|
000000000000000000000000000000000000000000000000,
|
|
200000000000000000000000200000000000000000000000
|
|
200000000000000000000000000000000000000000000000,
|
|
#GOGOSTART
|
|
300000000000000000300000000000000000300000000000
|
|
000000300000000000000000300000000000300000000000,
|
|
#GOGOEND
|
|
000000000000000000000000300000000000000000000000
|
|
000000000000000000000000000000000000000000000000,
|
|
100000000000000000000000000000000000000000000000
|
|
200000000000000000200000000000000000200000000000,
|
|
#GOGOSTART
|
|
300000000000000000300000000000000000300000000000
|
|
000000300000000000000000300000000000300000000000,
|
|
600000000000000000000000000000000000000000000000
|
|
000000000000000000000000000000000008000000000000,
|
|
#GOGOEND
|
|
300000000000000000000000000000000000000000000000
|
|
000000000000000000000000000000000000000000000000,
|
|
000000000000000000000000000000000000000000000000
|
|
000000000000000000000000000000000000000000000000,
|
|
#GOGOSTART
|
|
500000000000000000000000000000000008000000000000
|
|
500000000000000000000000000000000008000000000000,
|
|
500000000000000000000000000000000008000000000000
|
|
500000000000000000000000000000000008000000000000,
|
|
#GOGOEND
|
|
100000000000000000000000000000000000000000000000
|
|
000000000000000000000000000000000000000000000000,
|
|
000000000000000000000000000000000000000000000000
|
|
000000000000000000000000000000000000000000000000,
|
|
#GOGOSTART
|
|
600000000000000000000000000000000008000000000000
|
|
600000000000000000000000000000000008000000000000,
|
|
600000000000000000000000000000000008000000000000
|
|
600000000000000000000000000000000008000000000000,
|
|
#GOGOEND
|
|
100000000000000000000000100000000000000000000000
|
|
100000000000000000000000100000000000100000000000,
|
|
100000000000000000000000100000000000000000000000
|
|
100000000000000000000000200000000000200000000000,
|
|
100000000000000000000000100000000000000000000000
|
|
100000000000000000000000100000000000100000000000,
|
|
100000000000000000000000100000000000000000000000
|
|
200000000000200000000000200000000000200000000000,
|
|
700000000000000000000000000000000000000000000000
|
|
000000000000000000000000000000000000000000000000,
|
|
000000000000000000000000000000000000000000000008
|
|
000000000000000000000000000000000000000000000000,
|
|
300000000000000000000000300000000000000000000000
|
|
300000000000000000000000300000000000000000000000,
|
|
400000000000000000000000400000000000000000000000
|
|
400000000000000000000000400000000000000000000000,
|
|
#MEASURE 6/4
|
|
100000000000000000000000100000000000100000000000
|
|
000000000000100000000000,
|
|
#MEASURE 8/4
|
|
200000000000000000000000200000000000200000000000
|
|
000000000000200000000000200000000000000000000000,
|
|
#MEASURE 6/4
|
|
100000000000000000000000100000000000100000000000
|
|
000000000000100000000000,
|
|
#MEASURE 8/4
|
|
200000000000000000200000000000000000200000000000
|
|
200000000000000000200000000000000000200000000000,
|
|
#MEASURE 6/4
|
|
100000000000000000000000100000000000100000000000
|
|
000000007000000000000000,
|
|
#MEASURE 8/4
|
|
000000000000000000000000000000000000000000000008
|
|
000000000000000000000000000000000000000000000000,
|
|
#MEASURE 6/4
|
|
100000000000000000000000100000000000100000000000
|
|
000000000000100000000000,
|
|
#MEASURE 8/4
|
|
200000000000000000000000200000000000000000000000
|
|
200000000000000000000000200000000000000000000000,
|
|
100000000000000000000000100000000000000000000000
|
|
100000000000100000000000200000000000200000000000,
|
|
100000000000000000000000100000000000100000000000
|
|
200000000000000000000000000000000000000000000000,
|
|
100000000000000000000000100000000000000000000000
|
|
100000000000100000000000200000000000200000000000,
|
|
100000000000000000000000100000000000100000000000
|
|
200000000000000000000000000000000000000000000000,
|
|
100000000000000000000000100000000000000000000000
|
|
100000000000100000000000200000000000200000000000,
|
|
100000000000000000000000100000000000100000000000
|
|
200000000000000000000000000000000000000000000000,
|
|
500000000000000000000000000000000008000000000000
|
|
500000000000000000000000000000000008000000000000,
|
|
600000000000000000000000000000000008000000000000
|
|
600000000000000000000000000008000000000000000000,
|
|
#MEASURE 4/4
|
|
#BPMCHANGE 166.5001678466796875
|
|
#SCROLL 0.75
|
|
300000000000000000000000200000000000200000000000,
|
|
100000000000100000100000200000000000000000000000,
|
|
100000000000100000100000200000000000200000000000,
|
|
100000000000000010000000000000002000000020000000
|
|
2000000020000000,
|
|
100000000000100000000000200000000000100000100000,
|
|
100000000000100000100000200000000000000000000000,
|
|
100000100000100000000000200000000000100000100000,
|
|
100000000000000010000000000000002000000020000000
|
|
2000000020000000,
|
|
#MEASURE 8/4
|
|
#BPMCHANGE 333.000335693359375
|
|
#SCROLL 0.5
|
|
100000000000000000000000100000000000200000000000
|
|
100000000000000000000000100000000000100000000000,
|
|
000000000000200000000000100000000000000000000000
|
|
100000000000000000000000200000000000200000000000,
|
|
100000000000000000000000100000000000200000000000
|
|
100000000000000000000000100000000000100000000000,
|
|
100000000000200000000000100000000000000000000000
|
|
200000000000200000000000200000000000200000000000,
|
|
100000000000000000000000100000000000200000000000
|
|
100000000000000000000000100000000000100000000000,
|
|
000000000000200000000000100000000000000000000000
|
|
100000000000000000000000200000000000200000000000,
|
|
100000000000000000000000100000000000200000000000
|
|
100000000000000000000000100000000000100000000000,
|
|
500000000000000000000000000000000000000000000000
|
|
000000000000000000000000000000000008000000000000,
|
|
300000000000000000000000000000000000000000000000
|
|
000000000000000000000000000000000000000000000000,
|
|
000000000000000000000000000000000000000000000000
|
|
000000000000000000000000000000000000000000000000,
|
|
000000000000000000000000000000000000000000000000
|
|
000000000000000000000000000000000000000000000000,
|
|
000000000000000000000000400000000000000000000000
|
|
400000000000000000000000400000000000000000000000,
|
|
#GOGOSTART
|
|
300000000000000000100000000000000000100000000000
|
|
200000000000200000000000200000000000200000000000,
|
|
100000000000100000000000200000000000200000000000
|
|
100000000000100000000000200000000000200000000000,
|
|
100000000000000000100000000000000000100000000000
|
|
200000000000000000200000000000000000200000000000,
|
|
100000000000000000000000100000000000000000000000
|
|
200000000000000000000000200000000000000000000000,
|
|
500000000000000000000000000000000000000000000000
|
|
000000000000000000000008000000000000000000000000,
|
|
100000000000000000100000000000000000100000000000
|
|
200000000000200000000000200000000000200000000000,
|
|
100000000000000000100000000000000000100000000000
|
|
700000000000000000000000000000000000000000000000,
|
|
000000000000000000000000000000000000000000000000
|
|
000000000000000000000000800000000000000000000000,
|
|
#GOGOEND
|
|
100000000000000000200000000000000000200000000000
|
|
100000000000200000000000200000000000200000000000,
|
|
200000000000000000000000
|
|
#GOGOSTART
|
|
300000000000000000000000
|
|
100000000000100000000000200000000000200000000000,
|
|
100000000000000000100000000000000000100000000000
|
|
200000000000000000200000000000000000200000000000,
|
|
100000000000000000000000100000000000000000000000
|
|
200000000000000000000000200000000000000000000000,
|
|
500000000000000000000000000000000000000000000000
|
|
000000000000000000000000000000000000000000000008,
|
|
000000000000000000000000100000000000000000000000
|
|
200000000000000000000000200000000000000000000000,
|
|
700000000000000000000000000000000000000000000000
|
|
000000000000000000000000000000000000000000000000,
|
|
000000000000000000000000000000000000000000000008
|
|
000000000000000000000000000000000000000000000000,
|
|
300000000000000000000000300000000000000000000000
|
|
400000000000000000000000400000000000000000000000,
|
|
600000000000000000000000000000000000000000000000
|
|
000000000000000000000000000000000008000000000000,
|
|
#GOGOEND
|
|
700000000000000000000000000000000000000000000000
|
|
000000000000000000000000000000000000000000000000,
|
|
000000000000000000000000000000000000000000000008
|
|
000000000000000000000000000000000000000000000000,
|
|
200000000000000000000000000000000000000000000000
|
|
000000000000000000000000000000000000000000000000,
|
|
200000000000000000000000200000000000000000000000
|
|
200000000000000000000000000000000000000000000000,
|
|
#GOGOSTART
|
|
600000000000000000000000000000000000000000000000
|
|
000000000000000000000000000000000000000000000000,
|
|
000000000000000000000000000000000000000000000000
|
|
000000000000000000000000000000000008000000000000,
|
|
#GOGOEND
|
|
300000000000000000000000000000000000000000000000
|
|
000000000000000000000000000000000000000000000000,
|
|
000000000000000000000000000000000000000000000000
|
|
000000000000000000000000000000000000000000000000,
|
|
000000000000000000000000000000000000000000000000
|
|
000000000000000000000000000000000000000000000000,
|
|
000000000000000000000000000000000000000000000000
|
|
000000000000000000000000000000000000000000000000,
|
|
#MEASURE 4/4
|
|
000000000000000000000000000000000000000000000000,
|
|
#END
|
|
|
|
COURSE:Normal
|
|
LEVEL:5
|
|
BALLOON:17,12,5,12,12,12
|
|
|
|
|
|
#START
|
|
#BARLINEOFF
|
|
#MEASURE 5/4
|
|
#SCROLL 0.5
|
|
000000000000000000000000000000000000000000000000
|
|
000000000000,
|
|
#BARLINEON
|
|
#MEASURE 8/4
|
|
300000000000000000000000000000000000000000000000
|
|
000000000000000000000000000000000000000000000000,
|
|
000000000000000000000000000000000000000000000000
|
|
000000000000000000000000000000000000000000000000,
|
|
200000000000000000000000000000000000000000000000
|
|
000000000000000000000000000000000000000000000000,
|
|
200000000000000000000000000000000000000000000000
|
|
200000000000000000000000000000000000000000000000,
|
|
#GOGOSTART
|
|
600000000000000000000000000000000000000000000000
|
|
000000000000000000000000000000000008000000000000,
|
|
#GOGOEND
|
|
000000000000000000000000300000000000000000000000
|
|
000000000000000000000000000000000000000000000000,
|
|
100000000000000000000000000000000000000000000000
|
|
200000000000000000000000000000000000000000000000,
|
|
#GOGOSTART
|
|
900000000000000000000000000000000000000000000000
|
|
000000000000000000000000000000000000000000000000,
|
|
000000000000000000000000000000000000000000000000
|
|
000000000000000000000000000000000000000000000008,
|
|
#GOGOEND
|
|
000000000000000000000000000000000000000000000000
|
|
000000000000000000000000000000000000000000000000,
|
|
000000000000000000000000000000000000000000000000
|
|
000000000000000000000000000000000000000000000000,
|
|
#GOGOSTART
|
|
500000000000000000000000000000000008000000000000
|
|
500000000000000000000000000000000008000000000000,
|
|
500000000000000000000000000000000008000000000000
|
|
500000000000000000000000000000000008000000000000,
|
|
#GOGOEND
|
|
100000000000000000000000000000000000000000000000
|
|
000000000000000000000000000000000000000000000000,
|
|
000000000000000000000000000000000000000000000000
|
|
000000000000000000000000000000000000000000000000,
|
|
#GOGOSTART
|
|
600000000000000000000000000000000008000000000000
|
|
600000000000000000000000000000000008000000000000,
|
|
600000000000000000000000000000000008000000000000
|
|
600000000000000000000000000000000008000000000000,
|
|
#GOGOEND
|
|
100000000000000000000000100000000000000000000000
|
|
100000000000000000000000100000000000100000000000,
|
|
100000000000000000000000100000000000000000000000
|
|
200000000000000000000000000000000000000000000000,
|
|
100000000000000000000000100000000000000000000000
|
|
100000000000000000000000100000000000100000000000,
|
|
100000000000000000000000100000000000000000000000
|
|
200000000000000000000000000000000000000000000000,
|
|
700000000000000000000000000000000000000000000000
|
|
000000000000000000000000000000000000000000000000,
|
|
000000000000000000000000000000000000000000000008
|
|
000000000000000000000000000000000000000000000000,
|
|
300000000000000000000000300000000000000000000000
|
|
300000000000000000000000300000000000000000000000,
|
|
600000000000000000000000000000000000000000000000
|
|
000000000000000000000008000000000000000000000000,
|
|
#MEASURE 6/4
|
|
100000000000000000000000100000000000100000000000
|
|
000000000000000000000000,
|
|
#MEASURE 8/4
|
|
200000000000000000000000200000000000200000000000
|
|
000000000000000000000000000000000000000000000000,
|
|
#MEASURE 6/4
|
|
100000000000000000000000100000000000100000000000
|
|
000000000000000000000000,
|
|
#MEASURE 8/4
|
|
200000000000000000000000000000000000000000000000
|
|
200000000000000000000000000000000000000000000000,
|
|
#MEASURE 6/4
|
|
100000000000000000000000100000000000100000000000
|
|
000000007000000000000000,
|
|
#MEASURE 8/4
|
|
000000000000000000000000000000000000000000000008
|
|
000000000000000000000000000000000000000000000000,
|
|
#MEASURE 6/4
|
|
100000000000000000000000100000000000100000000000
|
|
000000000000000000000000,
|
|
#MEASURE 8/4
|
|
200000000000000000000000200000000000000000000000
|
|
200000000000000000000000200000000000000000000000,
|
|
100000000000000000000000000000000000000000000000
|
|
100000000000000000000000100000000000100000000000,
|
|
100000000000000000000000000000000000000000000000
|
|
200000000000000000000000000000000000000000000000,
|
|
100000000000000000000000000000000000000000000000
|
|
100000000000000000000000100000000000100000000000,
|
|
100000000000000000000000000000000000000000000000
|
|
200000000000000000000000000000000000000000000000,
|
|
100000000000000000000000000000000000000000000000
|
|
100000000000000000000000100000000000100000000000,
|
|
100000000000000000000000000000000000000000000000
|
|
200000000000000000000000000000000000000000000000,
|
|
500000000000000000000000000000000008000000000000
|
|
500000000000000000000000000000000008000000000000,
|
|
600000000000000000000000000000000008000000000000
|
|
600000000000000000000008000000000000000000000000,
|
|
#MEASURE 4/4
|
|
#BPMCHANGE 166.5001678466796875
|
|
#SCROLL 0.75
|
|
300000000000000000000000200000000000000000000000,
|
|
100000000000100000100000200000000000000000000000,
|
|
100000000000000000000000200000000000000000000000,
|
|
100000000000000010000000000000002000000020000000
|
|
2000000000000000,
|
|
100000000000000000000000200000000000000000000000,
|
|
100000000000100000100000200000000000000000000000,
|
|
100000000000000000000000200000000000000000000000,
|
|
100000000000000010000000000000002000000020000000
|
|
2000000000000000,
|
|
#MEASURE 8/4
|
|
#BPMCHANGE 333.000335693359375
|
|
#SCROLL 0.5
|
|
100000000000000000000000100000000000000000000000
|
|
100000000000000000000000100000000000100000000000,
|
|
000000000000000000000000100000000000000000000000
|
|
200000000000000000000000000000000000000000000000,
|
|
100000000000000000000000100000000000000000000000
|
|
100000000000000000000000100000000000100000000000,
|
|
100000000000000000000000100000000000000000000000
|
|
200000000000000000000000000000000000000000000000,
|
|
100000000000000000000000100000000000000000000000
|
|
100000000000000000000000100000000000100000000000,
|
|
000000000000000000000000100000000000000000000000
|
|
200000000000000000000000000000000000000000000000,
|
|
100000000000000000000000100000000000000000000000
|
|
100000000000000000000000100000000000100000000000,
|
|
500000000000000000000000000000000000000000000000
|
|
000000000000000000000000000000000000000000000008,
|
|
000000000000000000000000000000000000000000000000
|
|
000000000000000000000000000000000000000000000000,
|
|
000000000000000000000000000000000000000000000000
|
|
000000000000000000000000000000000000000000000000,
|
|
000000000000000000000000000000000000000000000000
|
|
000000000000000000000000000000000000000000000000,
|
|
000000000000000000000000400000000000000000000000
|
|
400000000000000000000000400000000000000000000000,
|
|
#GOGOSTART
|
|
300000000000000000000000000000000000000000000000
|
|
200000000000200000000000200000000000000000000000,
|
|
100000000000100000000000100000000000000000000000
|
|
200000000000000000000000000000000000000000000000,
|
|
100000000000000000100000000000000000000000000000
|
|
200000000000000000200000000000000000000000000000,
|
|
100000000000000000000000100000000000000000000000
|
|
200000000000000000000000200000000000000000000000,
|
|
500000000000000000000000000000000000000000000000
|
|
000000000000000000000008000000000000000000000000,
|
|
100000000000000000000000000000000000000000000000
|
|
200000000000200000000000200000000000000000000000,
|
|
700000000000000000000000000000000000000000000000
|
|
000000000000000000000000000000000000000000000000,
|
|
000000000000000000000000000000000000000000000008
|
|
000000000000000000000000000000000000000000000000,
|
|
#GOGOEND
|
|
100000000000000000000000000000000000000000000000
|
|
100000000000000000000000200000000000200000000000,
|
|
200000000000000000000000
|
|
#GOGOSTART
|
|
100000000000000000000000
|
|
200000000000000000000000000000000000000000000000,
|
|
100000000000000000100000000000000000000000000000
|
|
200000000000000000200000000000000000000000000000,
|
|
100000000000000000000000100000000000000000000000
|
|
200000000000000000000000200000000000000000000000,
|
|
500000000000000000000000000000000000000000000000
|
|
000000000000000000000000000000000000000000000008,
|
|
000000000000000000000000100000000000000000000000
|
|
200000000000000000000000200000000000000000000000,
|
|
700000000000000000000000000000000000000000000000
|
|
000000000000000000000000000000000000000000000000,
|
|
000000000000000000000000000000000000000000000008
|
|
000000000000000000000000000000000000000000000000,
|
|
300000000000000000000000300000000000000000000000
|
|
400000000000000000000000400000000000000000000000,
|
|
600000000000000000000000000000000000000000000000
|
|
000000000000000000000000000000000008000000000000,
|
|
#GOGOEND
|
|
700000000000000000000000000000000000000000000000
|
|
000000000000000000000000000000000000000000000000,
|
|
000000000000000000000000000000000000000000000008
|
|
000000000000000000000000000000000000000000000000,
|
|
200000000000000000000000000000000000000000000000
|
|
000000000000000000000000000000000000000000000000,
|
|
200000000000000000000000000000000000000000000000
|
|
200000000000000000000000000000000000000000000000,
|
|
#GOGOSTART
|
|
600000000000000000000000000000000000000000000000
|
|
000000000000000000000000000000000000000000000000,
|
|
000000000000000000000000000000000000000000000000
|
|
000000000000000000000000000000000008000000000000,
|
|
#GOGOEND
|
|
300000000000000000000000000000000000000000000000
|
|
000000000000000000000000000000000000000000000000,
|
|
000000000000000000000000000000000000000000000000
|
|
000000000000000000000000000000000000000000000000,
|
|
000000000000000000000000000000000000000000000000
|
|
000000000000000000000000000000000000000000000000,
|
|
000000000000000000000000000000000000000000000000
|
|
000000000000000000000000000000000000000000000000,
|
|
#MEASURE 4/4
|
|
000000000000000000000000000000000000000000000000,
|
|
#END
|
|
|
|
COURSE:Easy
|
|
LEVEL:3
|
|
BALLOON:13,10,4,10,10,10
|
|
|
|
|
|
#START
|
|
#BARLINEOFF
|
|
#MEASURE 5/4
|
|
#SCROLL 0.5
|
|
000000000000000000000000000000000000000000000000
|
|
000000000000,
|
|
#BARLINEON
|
|
#MEASURE 8/4
|
|
300000000000000000000000000000000000000000000000
|
|
000000000000000000000000000000000000000000000000,
|
|
000000000000000000000000000000000000000000000000
|
|
000000000000000000000000000000000000000000000000,
|
|
200000000000000000000000000000000000000000000000
|
|
000000000000000000000000000000000000000000000000,
|
|
200000000000000000000000000000000000000000000000
|
|
200000000000000000000000000000000000000000000000,
|
|
#GOGOSTART
|
|
600000000000000000000000000000000000000000000000
|
|
000000000000000000000000000000000008000000000000,
|
|
#GOGOEND
|
|
000000000000000000000000300000000000000000000000
|
|
000000000000000000000000000000000000000000000000,
|
|
100000000000000000000000000000000000000000000000
|
|
200000000000000000000000000000000000000000000000,
|
|
#GOGOSTART
|
|
900000000000000000000000000000000000000000000000
|
|
000000000000000000000000000000000000000000000000,
|
|
000000000000000000000000000000000000000000000000
|
|
000000000000000000000000000000000000000000000008,
|
|
#GOGOEND
|
|
000000000000000000000000000000000000000000000000
|
|
000000000000000000000000000000000000000000000000,
|
|
000000000000000000000000000000000000000000000000
|
|
000000000000000000000000000000000000000000000000,
|
|
#GOGOSTART
|
|
500000000000000000000000000000000000000000000000
|
|
000000000000000000000000000000000000000000000000,
|
|
000000000000000000000000000000000000000000000000
|
|
000000000000000000000000000000000000000000000008,
|
|
#GOGOEND
|
|
000000000000000000000000000000000000000000000000
|
|
000000000000000000000000000000000000000000000000,
|
|
000000000000000000000000000000000000000000000000
|
|
000000000000000000000000000000000000000000000000,
|
|
#GOGOSTART
|
|
600000000000000000000000000000000000000000000000
|
|
000000000000000000000000000000000000000000000000,
|
|
000000000000000000000000000000000000000000000000
|
|
000000000008000000000000000000000000000000000000,
|
|
#GOGOEND
|
|
100000000000000000000000100000000000000000000000
|
|
100000000000000000000000000000000000000000000000,
|
|
100000000000000000000000100000000000000000000000
|
|
200000000000000000000000000000000000000000000000,
|
|
100000000000000000000000100000000000000000000000
|
|
100000000000000000000000000000000000000000000000,
|
|
100000000000000000000000100000000000000000000000
|
|
200000000000000000000000000000000000000000000000,
|
|
700000000000000000000000000000000000000000000000
|
|
000000000000000000000000000000000000000000000000,
|
|
000000000000000000000000000000000000000000000008
|
|
000000000000000000000000000000000000000000000000,
|
|
300000000000000000000000300000000000000000000000
|
|
300000000000000000000000300000000000000000000000,
|
|
600000000000000000000000000000000000000000000000
|
|
000000000000000000000008000000000000000000000000,
|
|
#MEASURE 6/4
|
|
100000000000000000000000100000000000000000000000
|
|
000000000000000000000000,
|
|
#MEASURE 8/4
|
|
200000000000000000000000200000000000000000000000
|
|
000000000000000000000000000000000000000000000000,
|
|
#MEASURE 6/4
|
|
100000000000000000000000100000000000000000000000
|
|
000000000000000000000000,
|
|
#MEASURE 8/4
|
|
200000000000000000000000000000000000000000000000
|
|
200000000000000000000000000000000000000000000000,
|
|
#MEASURE 6/4
|
|
100000000000000000000000100000000000000000000000
|
|
000000007000000000000000,
|
|
#MEASURE 8/4
|
|
000000000000000000000000000000000000000000000008
|
|
000000000000000000000000000000000000000000000000,
|
|
#MEASURE 6/4
|
|
100000000000000000000000100000000000000000000000
|
|
000000000000000000000000,
|
|
#MEASURE 8/4
|
|
200000000000000000000000000000000000000000000000
|
|
200000000000000000000000000000000000000000000000,
|
|
100000000000000000000000000000000000000000000000
|
|
000000000000000000000000100000000000000000000000,
|
|
100000000000000000000000000000000000000000000000
|
|
200000000000000000000000000000000000000000000000,
|
|
100000000000000000000000000000000000000000000000
|
|
000000000000000000000000100000000000000000000000,
|
|
100000000000000000000000000000000000000000000000
|
|
200000000000000000000000000000000000000000000000,
|
|
100000000000000000000000000000000000000000000000
|
|
000000000000000000000000100000000000000000000000,
|
|
100000000000000000000000000000000000000000000000
|
|
200000000000000000000000000000000000000000000000,
|
|
500000000000000000000000000000000000000000000000
|
|
000000000000000000000000000000000008000000000000,
|
|
600000000000000000000000000000000000000000000000
|
|
000000000008000000000000000000000000000000000000,
|
|
#MEASURE 4/4
|
|
#BPMCHANGE 166.5001678466796875
|
|
#SCROLL 0.75
|
|
300000000000000000000000200000000000000000000000,
|
|
000000000000000000000000200000000000000000000000,
|
|
100000000000000000000000200000000000000000000000,
|
|
000000000000000000000000000000002000000000000000
|
|
0000000000000000,
|
|
100000000000000000000000200000000000000000000000,
|
|
000000000000000000000000200000000000000000000000,
|
|
100000000000000000000000200000000000000000000000,
|
|
000000000000000000000000000000002000000000000000
|
|
0000000000000000,
|
|
#MEASURE 8/4
|
|
#BPMCHANGE 333.000335693359375
|
|
#SCROLL 0.5
|
|
100000000000000000000000100000000000000000000000
|
|
100000000000000000000000000000000000000000000000,
|
|
000000000000000000000000100000000000000000000000
|
|
200000000000000000000000000000000000000000000000,
|
|
100000000000000000000000100000000000000000000000
|
|
100000000000000000000000000000000000000000000000,
|
|
100000000000000000000000100000000000000000000000
|
|
200000000000000000000000000000000000000000000000,
|
|
100000000000000000000000100000000000000000000000
|
|
100000000000000000000000000000000000000000000000,
|
|
000000000000000000000000100000000000000000000000
|
|
200000000000000000000000000000000000000000000000,
|
|
100000000000000000000000100000000000000000000000
|
|
100000000000000000000000000000000000000000000000,
|
|
500000000000000000000000000000000000000000000000
|
|
000000000000000000000000000000000000000000000008,
|
|
000000000000000000000000000000000000000000000000
|
|
000000000000000000000000000000000000000000000000,
|
|
000000000000000000000000000000000000000000000000
|
|
000000000000000000000000000000000000000000000000,
|
|
000000000000000000000000000000000000000000000000
|
|
000000000000000000000000000000000000000000000000,
|
|
000000000000000000000000300000000000000000000000
|
|
300000000000000000000000300000000000000000000000,
|
|
#GOGOSTART
|
|
300000000000000000000000000000000000000000000000
|
|
200000000000000000000000200000000000000000000000,
|
|
100000000000000000000000100000000000000000000000
|
|
200000000000000000000000000000000000000000000000,
|
|
100000000000000000000000000000000000000000000000
|
|
200000000000000000000000000000000000000000000000,
|
|
100000000000000000000000100000000000000000000000
|
|
200000000000000000000000200000000000000000000000,
|
|
500000000000000000000000000000000000000000000000
|
|
000000000008000000000000000000000000000000000000,
|
|
100000000000000000000000000000000000000000000000
|
|
200000000000000000000000200000000000000000000000,
|
|
700000000000000000000000000000000000000000000000
|
|
000000000000000000000000000000000000000000000000,
|
|
000000000000000000000000000000000000000000000008
|
|
000000000000000000000000000000000000000000000000,
|
|
#GOGOEND
|
|
400000000000000000000000000000000000000000000000
|
|
400000000000000000000000000000000000000000000000,
|
|
000000000000000000000000
|
|
#GOGOSTART
|
|
100000000000000000000000
|
|
200000000000000000000000000000000000000000000000,
|
|
100000000000000000000000000000000000000000000000
|
|
200000000000000000000000000000000000000000000000,
|
|
100000000000000000000000100000000000000000000000
|
|
200000000000000000000000200000000000000000000000,
|
|
500000000000000000000000000000000000000000000000
|
|
000000000000000000000000000000000000000000000008,
|
|
000000000000000000000000100000000000000000000000
|
|
100000000000000000000000100000000000000000000000,
|
|
700000000000000000000000000000000000000000000000
|
|
000000000000000000000000000000000000000000000000,
|
|
000000000000000000000000000000000000000000000008
|
|
000000000000000000000000000000000000000000000000,
|
|
300000000000000000000000300000000000000000000000
|
|
300000000000000000000000300000000000000000000000,
|
|
600000000000000000000000000000000000000000000000
|
|
000000000000000000000000000000000008000000000000,
|
|
#GOGOEND
|
|
700000000000000000000000000000000000000000000000
|
|
000000000000000000000000000000000000000000000000,
|
|
000000000000000000000000000000000000000000000008
|
|
000000000000000000000000000000000000000000000000,
|
|
200000000000000000000000000000000000000000000000
|
|
000000000000000000000000000000000000000000000000,
|
|
200000000000000000000000000000000000000000000000
|
|
200000000000000000000000000000000000000000000000,
|
|
#GOGOSTART
|
|
600000000000000000000000000000000000000000000000
|
|
000000000000000000000000000000000000000000000000,
|
|
000000000000000000000000000000000000000000000000
|
|
000000000000000000000000000000000008000000000000,
|
|
#GOGOEND
|
|
300000000000000000000000000000000000000000000000
|
|
000000000000000000000000000000000000000000000000,
|
|
000000000000000000000000000000000000000000000000
|
|
000000000000000000000000000000000000000000000000,
|
|
000000000000000000000000000000000000000000000000
|
|
000000000000000000000000000000000000000000000000,
|
|
000000000000000000000000000000000000000000000000
|
|
000000000000000000000000000000000000000000000000,
|
|
#MEASURE 4/4
|
|
000000000000000000000000000000000000000000000000,
|
|
#END
|